<?xml version="1.0" standalone="no"?>
<!DOCTYPE svg PUBLIC "-//W3C//DTD SVG 1.1//EN" "http://www.w3.org/Graphics/SVG/1.1/DTD/svg11.dtd" >
<svg xmlns="http://www.w3.org/2000/svg" xmlns:xlink="http://www.w3.org/1999/xlink" version="1.1">
<metadata>
Created by FontForge 20170731 at Fri May  5 14:18:43 2017
 By Aleksey,,,
Copyright (c) 2014 Indian Type Foundry (info@indiantypefoundry.com)
</metadata>
<defs>
<font id="Hind-Regular" horiz-adv-x="0" >
  <font-face 
    font-family="Hind"
    font-weight="400"
    font-stretch="normal"
    units-per-em="1000"
    panose-1="2 0 0 0 0 0 0 0 0 0"
    ascent="800"
    descent="-200"
    x-height="507"
    cap-height="674"
    bbox="-425 -440 2147 1003"
    underline-thickness="50"
    underline-position="-200"
    unicode-range="U+000D-FB02"
  />
<missing-glyph horiz-adv-x="751" 
d="M176 0v701h399v-701h-399zM235 646v-591h281v591h-281z" />
    <glyph glyph-name="fi" unicode="fi" horiz-adv-x="514" 
d="M445 507v-507h-79v443h-170v-443h-79v443h-87v64h87v47q0 74 40 117t113 43q71 0 139 -34v-73q-70 36 -136 36q-77 0 -77 -90v-46h249z" />
    <glyph glyph-name="fl" unicode="fl" horiz-adv-x="510" 
d="M117 507v47q0 74 39.5 117t112.5 43q85 0 168 -49v-665h-78v627q-42 16 -81 16q-82 0 -82 -90v-46h112v-64h-112v-443h-79v443h-87v64h87z" />
    <glyph glyph-name="f_f" unicode="ff" horiz-adv-x="578" 
d="M366 507v47q0 34 10 67q-47 22 -99 22q-81 0 -81 -90v-46h170zM564 707v-72q-24 8 -46 8q-32 0 -52.5 -22t-20.5 -68v-46h111v-64h-111v-443h-79v443h-170v-443h-79v443h-87v64h87v47q0 74 40.5 117t116.5 43q75 0 139 -35q40 35 102 35q23 0 49 -7z" />
    <glyph glyph-name="f_f_i" unicode="ffi" horiz-adv-x="785" 
d="M366 507v47q0 34 10 67q-47 22 -99 22q-81 0 -81 -90v-46h170zM694 507v-507h-79v443h-170v-443h-79v443h-170v-443h-79v443h-87v64h87v47q0 74 40.5 117t116.5 43q70 0 140 -35q40 35 105 35q69 0 139 -34v-73q-70 36 -136 36q-77 0 -77 -90v-46h249z" />
    <glyph glyph-name="f_f_l" unicode="ffl" horiz-adv-x="760" 
d="M367 507v47q0 38 10 67q-49 22 -100 22q-81 0 -81 -90v-46h171zM117 507v47q0 74 40.5 117t116.5 43q70 0 140 -35q41 35 105 35q83 0 168 -49v-665h-79v627q-42 16 -80 16q-82 0 -82 -90v-46h111v-64h-111v-443h-79v443h-171v-443h-79v443h-87v64h87z" />
    <glyph glyph-name=".notdef" horiz-adv-x="751" 
d="M176 0v701h399v-701h-399zM235 646v-591h281v591h-281z" />
    <glyph glyph-name=".null" 
 />
    <glyph glyph-name="nonmarkingreturn" horiz-adv-x="333" 
 />
    <glyph glyph-name="NULL" 
 />
    <glyph glyph-name="NULL" 
 />
    <glyph glyph-name="CR" unicode="&#xd;" 
 />
    <glyph glyph-name="space" unicode=" " horiz-adv-x="244" 
 />
    <glyph glyph-name="exclam" unicode="!" horiz-adv-x="251" 
d="M87 204v470h77v-470h-77zM65 51q0 24 17 41.5t42 17.5t42.5 -17.5t17.5 -41.5q0 -25 -17 -42t-43 -17t-42.5 17t-16.5 42z" />
    <glyph glyph-name="quotedbl" unicode="&#x22;" horiz-adv-x="295" 
d="M44 444v237h71v-237h-71zM181 444v237h70v-237h-70z" />
    <glyph glyph-name="numbersign" unicode="#" horiz-adv-x="710" 
d="M425 233l44 206h-179l-44 -206h179zM657 439h-116l-43 -206h107v-63h-120l-36 -170h-73l36 170h-179l-36 -170h-71l36 170h-109v63h122l43 206h-111v64h125l36 171h72l-36 -171h179l36 171h71l-36 -171h103v-64z" />
    <glyph glyph-name="dollar" unicode="$" horiz-adv-x="505" 
d="M417 649v-85q-61 40 -145 40q-61 0 -97 -28.5t-36 -74.5q0 -25 9.5 -43.5t35 -35.5t40 -24.5t53.5 -24.5q7 -3 11 -5q38 -17 62 -30.5t51 -35.5t40 -53t13 -70q0 -82 -52.5 -130t-137.5 -55v-103h-69v104q-82 8 -139 41v87q73 -55 178 -55q63 0 99.5 28.5t36.5 80.5
q0 24 -9.5 42.5t-35 35.5t-40 24.5t-55.5 24.5q-12 5 -18 8q-36 16 -59.5 29.5t-49 35.5t-38 52t-12.5 68q0 80 54.5 128t138.5 54v104h69v-106q59 -7 102 -28z" />
    <glyph glyph-name="percent" unicode="%" horiz-adv-x="847" 
d="M206 -1l357 666h77l-359 -666h-75zM482 151q0 66 46 112.5t112 46.5q65 0 111.5 -47t46.5 -112t-46.5 -111.5t-111.5 -46.5q-66 0 -112 46.5t-46 111.5zM49 515q0 65 46.5 111.5t111.5 46.5t112 -46.5t47 -111.5q0 -66 -47 -112.5t-112 -46.5t-111.5 46.5t-46.5 112.5z
M118 515q0 -37 26 -63.5t63 -26.5t63.5 26.5t26.5 63.5t-26.5 63t-63.5 26t-63 -26t-26 -63zM550 151q0 -37 26.5 -63t63.5 -26t63.5 26t26.5 63t-26 63.5t-64 26.5q-37 0 -63.5 -26.5t-26.5 -63.5z" />
    <glyph glyph-name="ampersand" unicode="&#x26;" horiz-adv-x="703" 
d="M315 65q94 0 156 50q-35 33 -82 76.5t-76.5 70.5t-39.5 37q-64 -24 -95 -53t-31 -69q0 -51 47 -81.5t121 -30.5zM318 618q-45 0 -74.5 -25.5t-29.5 -70.5q0 -32 18.5 -63.5t66.5 -80.5q67 31 97.5 63.5t30.5 74.5q0 43 -28 72.5t-81 29.5zM701 0h-107l-68 63
q-81 -71 -209 -71q-113 0 -182.5 51.5t-69.5 132.5q0 113 158 173q-47 51 -69 90.5t-22 83.5q0 75 51 121t136 46t137 -49.5t52 -123.5q0 -57 -36.5 -103t-122.5 -86l169 -158q24 44 28 98h76q-6 -86 -48 -150z" />
    <glyph glyph-name="quotesingle" unicode="'" horiz-adv-x="159" 
d="M44 444v237h71v-237h-71z" />
    <glyph glyph-name="parenleft" unicode="(" horiz-adv-x="310" 
d="M320 -196h-88q-160 204 -160 457q0 122 41 238t112 208h87q-157 -212 -157 -450q0 -240 165 -453z" />
    <glyph glyph-name="parenright" unicode=")" horiz-adv-x="310" 
d="M86 707q71 -92 112 -208t41 -238q0 -252 -161 -457h-88q165 213 165 453t-157 450h88z" />
    <glyph glyph-name="asterisk" unicode="*" horiz-adv-x="408" 
d="M250 488h-7q19 -10 32 -30l56 -78l-51 -38l-57 78q-14 20 -19 39q-5 -20 -19 -40l-57 -77l-52 37l57 79q16 21 31 29h-8q-19 0 -36 6l-91 30l19 62l93 -30q21 -7 39 -23q-9 20 -9 46v96h64v-96q0 -26 -8 -44q15 15 39 22l92 29l20 -61l-92 -30q-16 -6 -36 -6z" />
    <glyph glyph-name="plus" unicode="+" horiz-adv-x="553" 
d="M497 376v-72h-187v-189h-74v189h-179v72h179v189h74v-189h187z" />
    <glyph glyph-name="comma" unicode="," horiz-adv-x="225" 
d="M-8 -123l93 224h105l-129 -224h-69z" />
    <glyph glyph-name="hyphen" unicode="-" horiz-adv-x="348" 
d="M57 234v69h234v-69h-234z" />
    <glyph glyph-name="period" unicode="." horiz-adv-x="166" 
d="M24 51q0 25 17 42t42 17t42 -17t17 -42t-17 -42t-42 -17t-42 17t-17 42z" />
    <glyph glyph-name="slash" unicode="/" horiz-adv-x="403" 
d="M-9 -102l364 809h81l-365 -809h-80z" />
    <glyph glyph-name="zero" unicode="0" horiz-adv-x="544" 
d="M43 329q0 154 62.5 243.5t164.5 89.5q106 0 168.5 -89.5t62.5 -243.5q0 -153 -60 -245t-171 -92q-103 0 -165 92t-62 245zM124 329q0 -123 42 -192.5t104 -69.5q69 0 109.5 68t40.5 194q0 125 -42.5 191.5t-107.5 66.5q-60 0 -103 -67.5t-43 -190.5z" />
    <glyph glyph-name="one" unicode="1" horiz-adv-x="323" 
d="M18 475v85l155 94h74v-654h-78v568z" />
    <glyph glyph-name="two" unicode="2" horiz-adv-x="494" 
d="M147 69h304v-69h-413v67q310 234 310 390q0 62 -36 95.5t-97 33.5q-79 0 -156 -59v79q71 55 163 55q88 0 148 -51t60 -145q0 -177 -283 -396z" />
    <glyph glyph-name="three" unicode="3" horiz-adv-x="466" 
d="M58 547v77q58 37 134 37q97 0 150.5 -49.5t53.5 -122.5q0 -53 -26.5 -95t-78.5 -63q57 -13 90.5 -52.5t33.5 -98.5q0 -80 -56 -133t-158 -53q-94 0 -163 33v79q74 -39 161 -39q64 0 99.5 33t35.5 86t-39.5 81.5t-113.5 28.5h-42v69h42q56 0 94.5 31.5t38.5 84.5t-33 80
t-91 27q-69 0 -132 -41z" />
    <glyph glyph-name="four" unicode="4" horiz-adv-x="540" 
d="M122 228h219v379zM516 228v-69h-97v-159h-78v159h-299v69l249 426h128v-426h97z" />
    <glyph glyph-name="five" unicode="5" horiz-adv-x="509" 
d="M169 585v-196q45 10 78 10q100 0 158.5 -53t58.5 -142q0 -97 -63.5 -154.5t-173.5 -57.5q-99 0 -168 34v78q64 -38 155 -38q168 0 168 141q0 57 -39 88.5t-101 31.5q-73 0 -151 -35v362h328v-69h-250z" />
    <glyph glyph-name="six" unicode="6" horiz-adv-x="526" 
d="M284 62q57 0 90.5 42t33.5 110q0 62 -33.5 99t-87.5 37q-90 0 -156 -73q4 -106 45.5 -160.5t107.5 -54.5zM444 658v-77q-43 19 -91 19q-94 0 -150 -70.5t-69 -177.5q66 69 163 69q90 0 141.5 -57t51.5 -151q0 -100 -56.5 -162t-149.5 -62q-112 0 -172 85t-60 222
q0 163 80 270t220 107q45 0 92 -15z" />
    <glyph glyph-name="seven" unicode="7" horiz-adv-x="451" 
d="M12 654h427v-69l-271 -585h-84l271 585h-343v69z" />
    <glyph glyph-name="eight" unicode="8" horiz-adv-x="536" 
d="M265 62q67 0 103 33t36 82q0 48 -35 81t-104 32q-67 -1 -100.5 -35.5t-33.5 -85.5q0 -46 35 -76.5t99 -30.5zM264 591q-56 0 -89 -33t-33 -80q0 -57 35.5 -86t90.5 -29q53 0 87 30.5t34 85.5q0 48 -32 80t-93 32zM364 328q121 -37 121 -158q0 -81 -63 -129.5t-158 -48.5
q-91 0 -152 47t-61 126q0 59 31.5 100.5t86.5 60.5q-107 41 -107 151q0 87 60 135.5t142 48.5q85 0 145 -47.5t60 -137.5q0 -51 -28 -89.5t-77 -58.5z" />
    <glyph glyph-name="nine" unicode="9" horiz-adv-x="504" 
d="M384 368v5q0 95 -33.5 155.5t-107.5 60.5q-57 0 -91 -38t-34 -104q0 -69 36 -106t98 -37q82 0 132 64zM64 11v78q52 -23 110 -23q181 0 206 227q-50 -59 -148 -59q-80 0 -138 58.5t-58 154.5q0 93 55 154t150 61q110 0 165.5 -82t55.5 -207q0 -178 -71.5 -279.5
t-213.5 -101.5q-58 0 -113 19z" />
    <glyph glyph-name="colon" unicode=":" horiz-adv-x="235" 
d="M59 380q0 24 16.5 41t41.5 17t42 -17t17 -41q0 -25 -17 -41.5t-42 -16.5t-41.5 16.5t-16.5 41.5zM59 57q0 25 16.5 42t41.5 17t42 -17t17 -42t-17 -41.5t-42 -16.5t-41.5 16.5t-16.5 41.5z" />
    <glyph glyph-name="semicolon" unicode=";" horiz-adv-x="225" 
d="M70 379q0 24 16.5 41t41.5 17t42 -17t17 -41q0 -25 -17 -41.5t-42 -16.5t-41.5 16.5t-16.5 41.5zM-8 -123l93 224h105l-129 -224h-69z" />
    <glyph glyph-name="less" unicode="&#x3c;" horiz-adv-x="527" 
d="M57 303v76l421 188v-81q-264 -109 -338 -144q34 -17 118.5 -53.5t151.5 -64.5l68 -28v-82z" />
    <glyph glyph-name="equal" unicode="=" horiz-adv-x="553" 
d="M57 407v68h440v-68h-440zM57 205v69h440v-69h-440z" />
    <glyph glyph-name="greater" unicode="&#x3e;" horiz-adv-x="527" 
d="M470 379v-76l-421 -189v82q262 108 337 146q-33 16 -117 52t-152 64l-68 28v81z" />
    <glyph glyph-name="question" unicode="?" horiz-adv-x="452" 
d="M45 561v80q65 41 160 41t152 -48.5t57 -134.5q0 -85 -59 -132t-137 -54l-1 -109h-76l-1 166q92 0 142 31.5t50 94.5q0 51 -33 83t-98 32q-77 0 -156 -50zM119 51q0 24 17 41.5t41 17.5q25 0 43 -17.5t18 -41.5q0 -25 -17.5 -42t-43.5 -17q-25 0 -41.5 17t-16.5 42z" />
    <glyph glyph-name="at" unicode="@" horiz-adv-x="905" 
d="M429 83q40 0 75.5 28t51.5 78q2 36 4 55q-16 105 -108 105q-52 0 -86 -44t-34 -107q0 -52 27 -83.5t70 -31.5zM594 -57l-4 -77q-67 -34 -176 -34q-163 0 -258.5 102.5t-95.5 261.5q0 179 126 298t305 119q154 0 260.5 -96t106.5 -253q0 -115 -54 -179t-123 -64
q-92 0 -117 86q-53 -89 -148 -89q-74 0 -116.5 52.5t-42.5 131.5q0 90 55.5 151.5t137.5 61.5q80 0 118 -64q0 8 1.5 27.5t2.5 31.5h66l-15 -138q-4 -53 -4 -86q0 -101 66 -101q44 0 73.5 48.5t29.5 125.5q0 136 -84.5 211.5t-214.5 75.5q-144 0 -248.5 -100.5
t-104.5 -249.5q0 -142 81.5 -219t198.5 -77q100 0 178 43z" />
    <glyph glyph-name="A" unicode="A" horiz-adv-x="648" 
d="M205 246h239l-13 39l-105 324q-12 -43 -108 -325zM526 0l-59 177h-285l-60 -177h-87l235 674h112l231 -674h-87z" />
    <glyph glyph-name="B" unicode="B" horiz-adv-x="571" 
d="M158 69h153q64 0 98.5 29.5t34.5 86.5t-38.5 89t-109.5 32h-138v-237zM158 605v-230h108q81 0 120 34t39 88q0 47 -36.5 77.5t-108.5 30.5h-122zM77 674h203q104 0 166.5 -48t62.5 -129q0 -58 -32.5 -100.5t-83.5 -53.5q56 -9 95.5 -50.5t39.5 -112.5q0 -81 -53.5 -130.5
t-151.5 -49.5h-246v674z" />
    <glyph glyph-name="C" unicode="C" horiz-adv-x="602" 
d="M558 647v-83q-44 23 -79 33t-92 10q-109 0 -181.5 -74t-72.5 -193q0 -124 72 -198t191 -74q96 0 164 51v-85q-62 -42 -170 -42q-152 0 -247 93.5t-95 254.5q0 152 96.5 247.5t242.5 95.5q105 0 171 -36z" />
    <glyph glyph-name="D" unicode="D" horiz-adv-x="661" 
d="M159 71h121q125 0 189 77.5t64 193.5q0 110 -71.5 185t-185.5 75h-117v-531zM77 674h200q149 0 244.5 -92.5t95.5 -239.5q0 -146 -88.5 -244t-247.5 -98h-204v674z" />
    <glyph glyph-name="E" unicode="E" horiz-adv-x="501" 
d="M158 71h295v-71h-376v674h371v-71h-290v-231h256v-71h-256v-230z" />
    <glyph glyph-name="F" unicode="F" horiz-adv-x="489" 
d="M447 603h-289v-239h254v-71h-254v-293h-81v674h370v-71z" />
    <glyph glyph-name="G" unicode="G" horiz-adv-x="670" 
d="M603 378v-322h-1l1 -3q-81 -61 -209 -61q-156 0 -251 92.5t-95 253.5q0 153 94.5 250.5t238.5 97.5q119 0 197 -46v-87q-82 54 -190 54q-113 0 -184 -73.5t-71 -195.5q0 -125 70 -196.5t193 -71.5q68 0 126 27v210h-148v71h229z" />
    <glyph glyph-name="H" unicode="H" horiz-adv-x="643" 
d="M485 674h81v-674h-81v305h-327v-305h-81v674h81v-296h327v296z" />
    <glyph glyph-name="I" unicode="I" horiz-adv-x="247" 
d="M83 0v674h81v-674h-81z" />
    <glyph glyph-name="J" unicode="J" horiz-adv-x="358" 
d="M30 22v78q40 -26 84 -26q87 0 87 92v508h81v-501q0 -173 -157 -173q-56 0 -95 22z" />
    <glyph glyph-name="K" unicode="K" horiz-adv-x="573" 
d="M77 0v674h81v-674h-81zM274 333l271 -333h-105l-266 333l257 341h100z" />
    <glyph glyph-name="L" unicode="L" horiz-adv-x="477" 
d="M158 73h287v-73h-368v674h81v-601z" />
    <glyph glyph-name="M" unicode="M" horiz-adv-x="857" 
d="M70 0l49 674h103l89 -246l108 -314q58 164 114 314l93 246h103l59 -674h-81l-23 266l-24 299q-53 -148 -109 -299l-94 -251h-77l-89 251l-102 293q0 -39 -19 -293l-19 -266h-81z" />
    <glyph glyph-name="N" unicode="N" horiz-adv-x="673" 
d="M77 0v674h102l169 -284l171 -292q-4 97 -4 291v285h81v-674h-102l-169 282q-51 85 -94 158.5t-61 105.5l-17 31q5 -104 5 -293v-284h-81z" />
    <glyph glyph-name="O" unicode="O" horiz-adv-x="700" 
d="M48 340q0 159 81.5 253t220.5 94q142 0 222.5 -93.5t80.5 -253.5q0 -159 -81.5 -253.5t-220.5 -94.5q-137 0 -220 95t-83 253zM133 340q0 -125 59.5 -198t158.5 -73q103 0 159.5 72t56.5 199t-57 199t-160 72q-102 0 -159.5 -72.5t-57.5 -198.5z" />
    <glyph glyph-name="P" unicode="P" horiz-adv-x="545" 
d="M158 317h104q76 0 119 39.5t43 100.5q0 68 -44 108t-125 40h-97v-288zM77 674h177q117 0 184.5 -60.5t67.5 -156.5q0 -90 -67 -149.5t-177 -59.5h-104v-248h-81v674z" />
    <glyph glyph-name="Q" unicode="Q" horiz-adv-x="709" 
d="M133 340q0 -125 59.5 -198t158.5 -73q103 0 159.5 72t56.5 199t-57 199t-160 72q-102 0 -159.5 -72.5t-57.5 -198.5zM683 -105l-88 -37l-200 137q-21 -3 -44 -3q-137 0 -220 95t-83 253q0 159 81.5 253t220.5 94q142 0 222.5 -93.5t80.5 -253.5q0 -116 -44.5 -199.5
t-125.5 -121.5z" />
    <glyph glyph-name="R" unicode="R" horiz-adv-x="548" 
d="M158 604v-269h102q69 0 105.5 37.5t36.5 96.5q0 135 -151 135h-93zM525 0h-97l-165 266h-8h-97v-266h-81v674h169q117 0 177.5 -55t60.5 -152q-2 -70 -37 -119t-99 -69z" />
    <glyph glyph-name="S" unicode="S" horiz-adv-x="524" 
d="M430 649v-85q-61 40 -146 40q-61 0 -97 -28.5t-36 -74.5q0 -24 9.5 -43t33.5 -35.5t41 -25t53 -24.5q34 -15 52 -23.5t46.5 -27t43 -36t26 -46t11.5 -61.5q0 -89 -61 -137.5t-157 -48.5q-106 0 -180 43v87q73 -55 178 -55q63 0 99 28t36 81q0 22 -8.5 39.5t-28 32t-37 24
t-47.5 23.5q-6 3 -18 8q-43 19 -65.5 31t-53 35.5t-44.5 54.5t-14 72q0 86 61.5 134.5t154.5 48.5q87 0 148 -31z" />
    <glyph glyph-name="T" unicode="T" horiz-adv-x="482" 
d="M463 674v-71h-182v-603h-81v603h-182v71h445z" />
    <glyph glyph-name="U" unicode="U" horiz-adv-x="645" 
d="M488 254v420h81v-418q0 -130 -65.5 -197t-182.5 -67q-115 0 -180 65.5t-65 190.5v426h81v-425q0 -93 44.5 -137t119.5 -44q167 0 167 186z" />
    <glyph glyph-name="V" unicode="V" horiz-adv-x="637" 
d="M601 674l-235 -674h-102l-228 674h87l88 -267l105 -334q39 126 108 334l90 267h87z" />
    <glyph glyph-name="W" unicode="W" horiz-adv-x="938" 
d="M432 664h81l74 -240l102 -342q46 221 74 341l57 251h82l-158 -674h-104l-65 213l-101 337q-31 -118 -96 -337l-63 -213h-103l-176 674h85l63 -250l83 -339q56 205 95 339z" />
    <glyph glyph-name="X" unicode="X" horiz-adv-x="613" 
d="M256 340l-205 334h95l155 -261q4 8 79 133.5t76 127.5h96l-204 -334l226 -340h-95l-176 271q-1 -2 -82 -132t-86 -139h-96z" />
    <glyph glyph-name="Y" unicode="Y" horiz-adv-x="593" 
d="M567 674l-231 -423v-251h-81v250l-229 424h94l51 -99q52 -100 83 -163t36 -76l5 -12q9 25 127 251l51 99h94z" />
    <glyph glyph-name="Z" unicode="Z" horiz-adv-x="569" 
d="M502 674v-66l-356 -539h371v-69h-465v67l356 538h-351v69h445z" />
    <glyph glyph-name="bracketleft" unicode="[" horiz-adv-x="310" 
d="M307 637h-152v-748h152v-72h-230v890h230v-70z" />
    <glyph glyph-name="backslash" unicode="\" horiz-adv-x="402" 
d="M48 707l364 -810h-80l-365 810h81z" />
    <glyph glyph-name="bracketright" unicode="]" horiz-adv-x="310" 
d="M233 707v-890h-230v72h152v748h-152v70h230z" />
    <glyph glyph-name="asciicircum" unicode="^" horiz-adv-x="461" 
d="M416 332h-79l-105 208l-108 -208h-79l142 262h91z" />
    <glyph glyph-name="underscore" unicode="_" horiz-adv-x="561" 
d="M28 -100v69h505v-69h-505z" />
    <glyph glyph-name="grave" unicode="`" horiz-adv-x="421" 
d="M210 798l98 -156h-69l-124 156h95z" />
    <glyph glyph-name="a" unicode="a" horiz-adv-x="492" 
d="M346 234h-88q-64 0 -96 -25t-32 -63t25 -61.5t73 -23.5q54 0 86 30.5t32 77.5v65zM84 401v79q57 35 150 35q191 0 191 -194v-321h-78v60q-39 -65 -142 -65q-71 0 -114.5 42t-43.5 106q0 73 55.5 113.5t151.5 40.5h92v26q0 60 -27 90.5t-91 30.5q-81 0 -144 -43z" />
    <glyph glyph-name="b" unicode="b" horiz-adv-x="570" 
d="M304 64q61 0 101 51t40 133q0 94 -41.5 144.5t-104.5 50.5q-54 0 -99 -45t-45 -141q0 -101 43.5 -147t105.5 -46zM155 707v-276q55 84 154 84q96 0 157 -73.5t61 -192.5q0 -107 -57.5 -182t-158.5 -75q-102 0 -156 83v-75h-79v707h79z" />
    <glyph glyph-name="c" unicode="c" horiz-adv-x="471" 
d="M125 251q1 -82 50 -136.5t139 -54.5q58 0 108 33v-75q-48 -29 -118 -29q-120 0 -190.5 76.5t-70.5 186.5q0 108 70.5 186t192.5 78q65 0 116 -28v-75q-46 31 -108 31q-86 0 -137.5 -55.5t-51.5 -137.5z" />
    <glyph glyph-name="d" unicode="d" horiz-adv-x="567" 
d="M266 64q62 0 105.5 46t43.5 147q0 96 -45 141t-99 45q-63 0 -104.5 -50.5t-41.5 -144.5q0 -82 40 -133t101 -51zM415 707h79v-707h-79v75q-54 -83 -156 -83q-101 0 -158.5 75t-57.5 182q0 119 61 192.5t157 73.5q99 0 154 -85v277z" />
    <glyph glyph-name="e" unicode="e" horiz-adv-x="522" 
d="M396 286v20q0 63 -34 100.5t-94 37.5q-57 0 -97 -41t-47 -117h272zM443 100v-74q-59 -31 -144 -31q-115 0 -185.5 70.5t-70.5 186.5q0 121 63 191t162 70q95 0 151 -61t56 -173q0 -32 -5 -59h-346q9 -75 57 -115t126 -40q85 0 136 35z" />
    <glyph glyph-name="f" unicode="f" horiz-adv-x="329" 
d="M315 707v-72q-24 8 -46 8q-32 0 -52.5 -22t-20.5 -68v-46h112v-64h-112v-443h-79v443h-87v64h87v47q0 74 39.5 117t109.5 43q24 0 49 -7z" />
    <glyph glyph-name="g" unicode="g" horiz-adv-x="549" 
d="M263 83q55 0 97.5 42.5t42.5 126.5q0 97 -41 144t-95 47q-65 0 -103 -51.5t-38 -134.5q0 -85 42 -129.5t95 -44.5zM403 507h79v-466q0 -116 -64 -174.5t-165 -58.5q-92 0 -157 31v79q64 -37 150 -37q73 0 115 39t42 122v57q-50 -86 -149 -86q-87 0 -148.5 64t-61.5 178
q0 113 57 186t149 73q104 0 153 -91v84z" />
    <glyph glyph-name="h" unicode="h" horiz-adv-x="540" 
d="M151 707v-288q45 95 160 95q73 0 117.5 -45t44.5 -122v-347h-79v328q0 55 -28.5 85t-74.5 30q-56 0 -98 -43t-42 -123v-277h-78v707h78z" />
    <glyph glyph-name="i" unicode="i" horiz-adv-x="233" 
d="M77 0v507h79v-507h-79zM65 666q0 22 14.5 37t36.5 15t37 -15t15 -37t-15 -36.5t-37 -14.5t-36.5 14.5t-14.5 36.5z" />
    <glyph glyph-name="j" unicode="j" horiz-adv-x="228" 
d="M-46 -180v70q38 -16 68 -16q56 0 56 73v560h78v-562q0 -66 -34.5 -103t-95.5 -37q-33 0 -72 15zM65 666q0 22 14.5 37t36.5 15t37 -15t15 -37t-15 -36.5t-37 -14.5t-36.5 14.5t-14.5 36.5z" />
    <glyph glyph-name="k" unicode="k" horiz-adv-x="480" 
d="M73 0v703h78v-703h-78zM254 266l206 -266h-95l-204 266l199 241h94z" />
    <glyph glyph-name="l" unicode="l" horiz-adv-x="233" 
d="M77 0v707h79v-707h-79z" />
    <glyph glyph-name="m" unicode="m" horiz-adv-x="818" 
d="M151 507v-82q42 89 143 89q117 0 148 -99q22 48 61.5 73.5t88.5 25.5q79 0 119 -45t40 -121v-348h-79v328q0 115 -97 115q-48 0 -86 -43.5t-38 -122.5v-277h-79v328q0 115 -97 115q-48 0 -86 -43.5t-38 -122.5v-277h-78v507h78z" />
    <glyph glyph-name="n" unicode="n" horiz-adv-x="540" 
d="M151 507v-88q45 95 160 95q74 0 118 -45t44 -120v-349h-79v328q0 56 -28.5 85.5t-74.5 29.5q-57 0 -98.5 -44t-41.5 -122v-277h-78v507h78z" />
    <glyph glyph-name="o" unicode="o" horiz-adv-x="562" 
d="M279 -9q-109 0 -172.5 73.5t-63.5 185.5q0 113 65.5 188.5t170.5 75.5q115 0 177.5 -74t62.5 -188q0 -113 -64 -187t-176 -74zM279 444q-72 0 -113 -56t-41 -137q0 -79 42 -134.5t112 -55.5q76 0 117 54.5t41 135.5q0 84 -39 138.5t-119 54.5z" />
    <glyph glyph-name="p" unicode="p" horiz-adv-x="567" 
d="M296 64q64 0 105 50.5t41 143.5q0 83 -40 134t-101 51t-105.5 -44.5t-44.5 -145.5q0 -97 45 -143t100 -46zM151 507v-77q53 85 157 85q101 0 158.5 -73.5t57.5 -183.5q0 -117 -60.5 -191.5t-157.5 -74.5q-100 0 -155 85v-274h-78v704h78z" />
    <glyph glyph-name="q" unicode="q" horiz-adv-x="567" 
d="M271 64q55 0 99.5 45.5t44.5 143.5q0 101 -44 145.5t-105 44.5t-101 -51t-40 -134q0 -93 41 -143.5t105 -50.5zM415 507h79v-704h-79v273q-55 -84 -154 -84q-97 0 -157.5 74.5t-60.5 191.5q0 110 58 183.5t159 73.5t155 -83v75z" />
    <glyph glyph-name="r" unicode="r" horiz-adv-x="326" 
d="M151 507v-89q40 94 138 94q18 0 28 -2v-78q-21 7 -43 7q-53 0 -88 -49t-35 -113v-277h-79l1 507h78z" />
    <glyph glyph-name="s" unicode="s" horiz-adv-x="412" 
d="M349 490v-75q-46 28 -126 28q-40 0 -63.5 -18.5t-23.5 -47.5q0 -18 7 -31.5t27.5 -26.5t30 -17.5t41.5 -18.5q64 -26 100 -59t36 -89q0 -65 -45.5 -103t-124.5 -38q-92 0 -149 31v77q67 -40 144 -40q46 0 70 18t24 49q0 36 -26.5 56t-88.5 45q-57 22 -91.5 55t-34.5 89
q0 63 47.5 100.5t118.5 37.5q79 0 127 -22z" />
    <glyph glyph-name="t" unicode="t" horiz-adv-x="369" 
d="M182 443v-297q0 -81 76 -81q39 0 69 23v-75q-33 -18 -74 -18q-150 0 -150 153v295h-81v64h81v126h79v-126h140v-64h-140z" />
    <glyph glyph-name="u" unicode="u" horiz-adv-x="540" 
d="M388 507h79v-507h-79v88q-40 -94 -159 -94q-75 0 -118.5 44.5t-43.5 119.5v349h79v-329q0 -55 28 -84t76 -29q63 0 100.5 44t37.5 119v279z" />
    <glyph glyph-name="v" unicode="v" horiz-adv-x="505" 
d="M202 0l-177 507h82l70 -214l74 -231q9 43 75 231l72 214h82l-181 -507h-97z" />
    <glyph glyph-name="w" unicode="w" horiz-adv-x="792" 
d="M181 0l-156 507h84l49 -168q26 -88 43.5 -153.5t22.5 -87.5l5 -21q15 64 73 263l48 167h84l49 -167l75 -264q14 59 77 264l51 167h81l-160 -507h-97l-48 166l-70 253q-15 -64 -68 -253l-46 -166h-97z" />
    <glyph glyph-name="x" unicode="x" horiz-adv-x="478" 
d="M283 259l170 -259h-91l-123 200l-127 -200h-87l170 260l-160 248h91l115 -190l116 190h90z" />
    <glyph glyph-name="y" unicode="y" horiz-adv-x="493" 
d="M213 13l-205 494h89l66 -167l89 -230q8 26 80 230l59 167h85l-183 -494q-39 -103 -92.5 -145t-122.5 -42q-26 0 -42 5v71q15 -4 34 -4q101 0 143 115z" />
    <glyph glyph-name="z" unicode="z" horiz-adv-x="453" 
d="M395 507v-58l-260 -378h274v-71h-365v62l257 375h-247v70h341z" />
    <glyph glyph-name="braceleft" unicode="{" horiz-adv-x="334" 
d="M321 705v-78q-17 9 -33 9q-31 0 -47 -21t-16 -53q0 -26 10.5 -77t10.5 -80q0 -56 -31.5 -95t-90.5 -48q59 -9 90.5 -48.5t31.5 -94.5q0 -30 -10.5 -81t-10.5 -77q0 -32 16 -53t47 -21q16 0 33 9v-77q-21 -8 -47 -8q-55 0 -92.5 40.5t-37.5 108.5q0 27 10.5 74t10.5 69
q0 101 -88 119q-9 2 -29 2v77q18 0 29 2q43 6 65.5 38.5t22.5 78.5q0 22 -10.5 69t-10.5 74q0 68 38 109t92 41q21 0 47 -8z" />
    <glyph glyph-name="bar" unicode="|" horiz-adv-x="228" 
d="M78 -194v889h72v-889h-72z" />
    <glyph glyph-name="braceright" unicode="}" horiz-adv-x="334" 
d="M13 627v78q26 8 47 8q54 0 92 -41t38 -109q0 -27 -10.5 -74t-10.5 -69q0 -46 22.5 -78.5t65.5 -38.5q11 -2 29 -2v-77q-20 0 -29 -2q-45 -9 -66.5 -41t-21.5 -78q0 -22 10.5 -69t10.5 -74q0 -68 -37.5 -108.5t-92.5 -40.5q-26 0 -47 8v77q17 -9 34 -9q30 0 46 21t16 53
q0 26 -10 77t-10 81q0 55 31.5 94.5t89.5 48.5q-58 9 -89.5 48t-31.5 95q0 30 10 80.5t10 76.5q0 32 -16 53t-46 21q-17 0 -34 -9z" />
    <glyph glyph-name="asciitilde" unicode="~" horiz-adv-x="599" 
d="M504 326l59 -42q-58 -90 -143 -90q-47 0 -117.5 37t-98.5 37q-67 0 -115 -69l-53 46q68 95 156 95q54 0 121.5 -37t99.5 -37q56 0 91 60z" />
    <glyph glyph-name="uni00A0" unicode="&#xa0;" horiz-adv-x="244" 
 />
    <glyph glyph-name="exclamdown" unicode="&#xa1;" horiz-adv-x="251" 
d="M65 458q0 26 16.5 42.5t42.5 16.5t43 -17t17 -42q0 -24 -17.5 -41.5t-42.5 -17.5t-42 17.5t-17 41.5zM87 -165v470h77v-470h-77z" />
    <glyph glyph-name="cent" unicode="&#xa2;" horiz-adv-x="452" 
d="M412 490v-74q-47 25 -94 25q-87 0 -138.5 -54.5t-52.5 -135.5q1 -81 50.5 -134t140.5 -53q52 0 94 24v-74q-33 -16 -78 -21v-104h-69v106q-103 13 -161 85t-58 172q0 97 58.5 170.5t160.5 87.5v105h69v-103q42 -5 78 -22z" />
    <glyph glyph-name="sterling" unicode="&#xa3;" horiz-adv-x="522" 
d="M161 69h322v-69h-422v66q57 27 78 67t21 116q0 13 -2 43h-92v63h85q-8 68 -8 94q0 101 53.5 155.5t150.5 54.5q58 0 108 -25v-78q-48 28 -100 28q-131 0 -131 -131q0 -30 8 -98h180v-63h-174q2 -30 2 -42q0 -77 -20.5 -117t-58.5 -64z" />
    <glyph glyph-name="currency" unicode="&#xa4;" horiz-adv-x="543" 
d="M55 309q0 72 40 128l-61 61l51 49l60 -61q57 41 130 41q70 0 126 -37l58 57l50 -49l-58 -58q38 -56 38 -125q0 -71 -42 -129l62 -61l-50 -49l-62 61q-56 -39 -128 -39q-73 0 -126 36l-58 -58l-51 49l59 58q-38 53 -38 126zM123 313q0 -65 42 -107.5t107 -42.5
q64 0 106 42t42 107q0 64 -42 107t-106 43q-65 0 -107 -42.5t-42 -106.5z" />
    <glyph glyph-name="yen" unicode="&#xa5;" horiz-adv-x="585" 
d="M549 654l-159 -292h119v-59h-151l-27 -49v-39h178v-58h-178v-157h-82v157h-177v58h177v38l-27 50h-150v59h118l-157 292h92l165 -322l167 322h92z" />
    <glyph glyph-name="brokenbar" unicode="&#xa6;" horiz-adv-x="228" 
d="M150 367h-72v331h72v-331zM150 -178h-72v331h72v-331z" />
    <glyph glyph-name="section" unicode="&#xa7;" horiz-adv-x="512" 
d="M132 300q0 -25 9.5 -44t33 -35.5t42 -26t56.5 -25.5q60 -27 81 -38q25 30 25 72q0 43 -31 68.5t-96 56.5q-13 6 -45.5 19.5t-48.5 21.5q-26 -29 -26 -69zM417 649v-85q-61 40 -145 40q-63 0 -98 -24t-35 -69q0 -20 6.5 -34t23.5 -26t29.5 -18.5t43 -19t46.5 -19.5
q33 -15 51.5 -24.5t44.5 -27.5t39.5 -35.5t24 -44.5t10.5 -59q0 -71 -43 -119q41 -43 41 -106q0 -87 -60.5 -134t-155.5 -47q-107 0 -181 44v87q74 -56 178 -56q65 0 100.5 27t35.5 78q0 41 -30 66t-101 57q-34 15 -47 21t-42 21.5t-42 28.5t-30 32.5t-23.5 43t-6.5 52.5
q0 66 42 113q-38 38 -38 96q0 83 60.5 127.5t153.5 44.5q87 0 148 -31z" />
    <glyph glyph-name="dieresis" unicode="&#xa8;" horiz-adv-x="421" 
d="M58 723q0 22 15 36.5t37 14.5t36.5 -14.5t14.5 -36.5t-14.5 -37t-36.5 -15t-37 15t-15 37zM260 723q0 22 14.5 36.5t36.5 14.5t37 -14.5t15 -36.5t-15 -37t-37 -15t-36.5 15t-14.5 37z" />
    <glyph glyph-name="copyright" unicode="&#xa9;" horiz-adv-x="776" 
d="M43 336q0 142 101.5 244t243.5 102t243.5 -102t101.5 -244q0 -141 -101.5 -243t-243.5 -102t-243.5 102t-101.5 243zM110 336q0 -116 82 -197.5t197 -81.5t197 81.5t82 197.5t-82 198t-197 82t-197 -82t-82 -198zM293 334q1 -54 35 -90t89 -36q46 0 78 25v-65
q-32 -21 -84 -21q-86 0 -137 54.5t-51 133.5q1 77 51.5 133t137.5 56q47 0 83 -20v-65q-35 23 -78 23q-55 0 -89.5 -35.5t-34.5 -92.5z" />
    <glyph glyph-name="ordfeminine" unicode="&#xaa;" horiz-adv-x="350" 
d="M253 588h-63q-119 0 -119 -74q0 -31 21.5 -50t61.5 -19q43 0 71 25t28 59v59zM33 730v65q53 31 126 31q84 0 122.5 -41.5t38.5 -122.5v-270h-65v54q-44 -58 -119 -58q-60 0 -97 33.5t-37 90.5q0 62 47 96.5t129 34.5h75v21q0 51 -22.5 77t-76.5 26q-66 0 -121 -37z" />
    <glyph glyph-name="guillemotleft" unicode="&#xab;" horiz-adv-x="480" 
d="M264 415l-146 -162l146 -162h-87l-150 162l150 162h87zM450 415l-146 -162l146 -162h-87l-150 162l150 162h87z" />
    <glyph glyph-name="logicalnot" unicode="&#xac;" horiz-adv-x="549" 
d="M512 160h-73v182h-414v71h487v-253z" />
    <glyph glyph-name="uni00AD" unicode="&#xad;" horiz-adv-x="348" 
d="M57 234v69h234v-69h-234z" />
    <glyph glyph-name="registered" unicode="&#xae;" horiz-adv-x="449" 
d="M203 651v-64h25q29 0 29 32t-32 32h-22zM159 687h61q82 0 82 -68q0 -43 -36 -60l54 -86h-52l-46 78h-19v-78h-44v214zM226 406q75 0 121 46.5t46 120.5q0 75 -46 121.5t-121 46.5q-76 0 -121.5 -46.5t-45.5 -121.5t45.5 -121t121.5 -46zM225 788q93 0 153.5 -61
t60.5 -154t-60.5 -153t-153.5 -60q-94 0 -154.5 60t-60.5 153t60.5 154t154.5 61z" />
    <glyph glyph-name="macron" unicode="&#xaf;" horiz-adv-x="421" 
d="M351 693h-282v56h282v-56z" />
    <glyph glyph-name="degree" unicode="&#xb0;" horiz-adv-x="355" 
d="M30 530q0 63 42.5 104.5t106.5 41.5q63 0 104.5 -40t41.5 -103t-43 -105t-106 -42q-64 0 -105 40t-41 104zM93 531q0 -36 25 -61t61 -25t59 25t23 61t-24.5 61.5t-60.5 25.5t-59.5 -25.5t-23.5 -61.5z" />
    <glyph glyph-name="plusminus" unicode="&#xb1;" horiz-adv-x="553" 
d="M57 30v70h440v-70h-440zM310 400h187v-69h-187v-169h-74v169h-179v69h179v169h74v-169z" />
    <glyph glyph-name="twosuperior" unicode="&#xb2;" horiz-adv-x="365" 
d="M47 392v49q198 149 198 249q0 39 -21.5 58t-55.5 19q-54 0 -107 -43v69q54 33 109 33q59 0 100 -34.5t41 -96.5q0 -59 -48 -124t-127 -124h190v-55h-279z" />
    <glyph glyph-name="threesuperior" unicode="&#xb3;" horiz-adv-x="325" 
d="M103 637h24q36 0 60.5 18t24.5 50q0 63 -73 63q-44 0 -92 -31v63q44 26 94 26q66 0 101.5 -33.5t35.5 -82.5q0 -39 -21 -65t-58 -34q37 -3 64 -32t27 -71q0 -53 -37 -86.5t-104 -33.5q-66 0 -114 25v60q50 -28 111 -28q37 0 58 18t21 48q0 33 -25.5 52t-72.5 19h-24v55z
" />
    <glyph glyph-name="acute" unicode="&#xb4;" horiz-adv-x="421" 
d="M115 642l99 156h94l-124 -156h-69z" />
    <glyph glyph-name="uni00B5" unicode="&#xb5;" horiz-adv-x="546" 
d="M394 507h79v-507h-79v77q-36 -83 -133 -83q-66 0 -110 38v-211h-78v686h78v-329q0 -53 36.5 -83t85.5 -30q56 0 88.5 43.5t32.5 119.5v279z" />
    <glyph glyph-name="paragraph" unicode="&#xb6;" horiz-adv-x="545" 
d="M286 674v-822h-71v489q-90 0 -139.5 47t-49.5 117q0 68 50.5 118.5t142.5 50.5h67zM401 -148v822h71v-822h-71z" />
    <glyph glyph-name="periodcentered" unicode="&#xb7;" horiz-adv-x="232" 
d="M57 319q0 25 17 42t42 17t42 -17t17 -42t-17 -42t-42 -17t-42 17t-17 42z" />
    <glyph glyph-name="cedilla" unicode="&#xb8;" horiz-adv-x="421" 
d="M285 -122q0 -54 -38.5 -91t-111.5 -39v58q84 6 84 71q0 34 -23 72h71q18 -25 18 -71z" />
    <glyph glyph-name="onesuperior" unicode="&#xb9;" horiz-adv-x="250" 
d="M10 690v65l117 67h52v-430h-62v357z" />
    <glyph glyph-name="ordmasculine" unicode="&#xba;" horiz-adv-x="376" 
d="M186 386q-89 0 -140.5 62t-51.5 157t53 159t139 64q94 0 144.5 -62.5t50.5 -158.5q0 -97 -51.5 -159t-143.5 -62zM186 769q-58 0 -90.5 -47.5t-32.5 -115.5t33.5 -115t90.5 -47q61 0 93 46t32 116q0 71 -30 117t-96 46z" />
    <glyph glyph-name="guillemotright" unicode="&#xbb;" horiz-adv-x="482" 
d="M116 415l151 -162l-151 -162h-87l147 162l-147 162h87zM302 415l151 -162l-151 -162h-87l147 162l-147 162h87z" />
    <glyph glyph-name="onequarter" unicode="&#xbc;" horiz-adv-x="832" 
d="M172 281v357l-107 -59v65l118 67h52v-430h-63zM595 712h71l-451 -712h-71zM531 150h133v230zM787 150v-51h-62v-99h-61v99h-197v51l164 279h94v-279h62z" />
    <glyph glyph-name="onehalf" unicode="&#xbd;" horiz-adv-x="833" 
d="M514 0v49q85 63 141.5 129t56.5 120q0 39 -21.5 58t-55.5 19q-54 0 -107 -43v69q54 33 109 33q59 0 100.5 -34.5t41.5 -96.5q0 -59 -48 -124t-127 -124h189v-55h-279zM65 579v65l118 67h52v-430h-63v357zM144 0l451 712h71l-451 -712h-71z" />
    <glyph glyph-name="threequarters" unicode="&#xbe;" horiz-adv-x="866" 
d="M84 626v63q44 26 94 26q66 0 101.5 -33.5t35.5 -82.5q0 -39 -21 -65t-58 -34q37 -3 64 -32t27 -71q0 -53 -37 -86.5t-104 -33.5q-66 0 -114 25v60q50 -28 111 -28q37 0 58 18t21 48q0 33 -25.5 52t-72.5 19h-24v55h24q36 0 60.5 18t24.5 50q0 63 -73 63q-44 0 -92 -31z
M651 712h71l-450 -712h-72zM587 150h133v229zM843 150v-51h-62v-99h-61v99h-197v51l164 279h94v-279h62z" />
    <glyph glyph-name="questiondown" unicode="&#xbf;" horiz-adv-x="452" 
d="M414 -52v-80q-65 -41 -160 -41t-152 48.5t-57 134.5q0 85 59 132t137 54l1 109h76l1 -166q-92 0 -142 -31.5t-50 -94.5q0 -51 33 -82.5t99 -31.5q78 0 155 49zM340 459q0 -25 -16.5 -42.5t-41.5 -17.5t-43 17.5t-18 42.5t17.5 41.5t43.5 16.5q25 0 41.5 -16.5t16.5 -41.5
z" />
    <glyph glyph-name="Agrave" unicode="&#xc0;" horiz-adv-x="648" 
d="M354 727h-69l-124 156h95zM205 246h239l-13 39l-105 324q-12 -43 -108 -325zM526 0l-59 177h-285l-60 -177h-87l235 674h112l231 -674h-87z" />
    <glyph glyph-name="Aacute" unicode="&#xc1;" horiz-adv-x="648" 
d="M492 883l-124 -156h-69l99 156h94zM205 246h239l-13 39l-105 324q-12 -43 -108 -325zM526 0l-59 177h-285l-60 -177h-87l235 674h112l231 -674h-87z" />
    <glyph glyph-name="Acircumflex" unicode="&#xc2;" horiz-adv-x="648" 
d="M327 832l-85 -105h-80l127 156h76l127 -156h-80zM205 246h239l-13 39l-105 324q-12 -43 -108 -325zM526 0l-59 177h-285l-60 -177h-87l235 674h112l231 -674h-87z" />
    <glyph glyph-name="Atilde" unicode="&#xc3;" horiz-adv-x="648" 
d="M446 860l49 -34q-32 -69 -99 -69q-27 0 -69.5 22t-58.5 22q-41 0 -68 -48l-43 37q14 30 41.5 50.5t59.5 20.5q30 0 73 -22t61 -22q34 0 54 43zM205 246h239l-13 39l-105 324q-12 -43 -108 -325zM526 0l-59 177h-285l-60 -177h-87l235 674h112l231 -674h-87z" />
    <glyph glyph-name="Adieresis" unicode="&#xc4;" horiz-adv-x="648" 
d="M428 754q-22 0 -36.5 15t-14.5 37t14.5 36.5t36.5 14.5t37 -14.5t15 -36.5t-15 -37t-37 -15zM227 754q-22 0 -37 15t-15 37t15 36.5t37 14.5t36.5 -14.5t14.5 -36.5t-14.5 -37t-36.5 -15zM205 246h239l-13 39l-105 324q-12 -43 -108 -325zM526 0l-59 177h-285l-60 -177
h-87l235 674h112l231 -674h-87z" />
    <glyph glyph-name="Aring" unicode="&#xc5;" horiz-adv-x="648" 
d="M327 878q-22 0 -37.5 -15.5t-15.5 -38.5q0 -22 15.5 -38t37.5 -16t38 16t16 38t-15.5 38t-38.5 16zM327 717q-44 0 -75 31t-31 75t31 75.5t75 31.5t75 -31.5t31 -75.5t-31 -75t-75 -31zM205 246h239l-13 39l-105 324q-12 -43 -108 -325zM526 0l-59 177h-285l-60 -177h-87
l235 674h112l231 -674h-87z" />
    <glyph glyph-name="AE" unicode="&#xc6;" horiz-adv-x="879" 
d="M252 246h204v364q-54 -103 -182 -326zM536 71h295v-71h-375v177h-244l-102 -177h-87l383 674h419v-71h-289v-231h256v-71h-256v-230z" />
    <glyph glyph-name="Ccedilla" unicode="&#xc7;" horiz-adv-x="602" 
d="M333 -51h71q18 -25 18 -71q0 -54 -38.5 -91t-111.5 -39v58q84 6 84 71q0 34 -23 72zM558 647v-83q-44 23 -79 33t-92 10q-109 0 -181.5 -74t-72.5 -193q0 -124 72 -198t191 -74q96 0 164 51v-85q-62 -42 -170 -42q-152 0 -247 93.5t-95 254.5q0 152 96.5 247.5
t242.5 95.5q105 0 171 -36z" />
    <glyph glyph-name="Egrave" unicode="&#xc8;" horiz-adv-x="501" 
d="M320 726h-69l-124 156h95zM158 71h295v-71h-376v674h371v-71h-290v-231h256v-71h-256v-230z" />
    <glyph glyph-name="Eacute" unicode="&#xc9;" horiz-adv-x="501" 
d="M437 883l-124 -156h-69l99 156h94zM158 71h295v-71h-376v674h371v-71h-290v-231h256v-71h-256v-230z" />
    <glyph glyph-name="Ecircumflex" unicode="&#xca;" horiz-adv-x="501" 
d="M273 832l-85 -105h-80l127 156h76l127 -156h-80zM158 71h295v-71h-376v674h371v-71h-290v-231h256v-71h-256v-230z" />
    <glyph glyph-name="Edieresis" unicode="&#xcb;" horiz-adv-x="501" 
d="M369 753q-22 0 -36.5 15t-14.5 37t14.5 36.5t36.5 14.5t37 -14.5t15 -36.5t-15 -37t-37 -15zM168 753q-22 0 -37 15t-15 37t15 36.5t37 14.5t36.5 -14.5t14.5 -36.5t-14.5 -37t-36.5 -15zM158 71h295v-71h-376v674h371v-71h-290v-231h256v-71h-256v-230z" />
    <glyph glyph-name="Igrave" unicode="&#xcc;" horiz-adv-x="247" 
d="M83 0v674h81v-674h-81zM55 883l98 -156h-69l-124 156h95z" />
    <glyph glyph-name="Iacute" unicode="&#xcd;" horiz-adv-x="247" 
d="M83 0v674h81v-674h-81zM93 727l99 156h94l-124 -156h-69z" />
    <glyph glyph-name="Icircumflex" unicode="&#xce;" horiz-adv-x="247" 
d="M86 883h76l127 -156h-80l-85 105l-85 -105h-80zM83 0v674h81v-674h-81z" />
    <glyph glyph-name="Idieresis" unicode="&#xcf;" horiz-adv-x="247" 
d="M83 0v674h81v-674h-81zM-27 806q0 22 15 36.5t37 14.5t36.5 -14.5t14.5 -36.5t-14.5 -37t-36.5 -15t-37 15t-15 37zM175 806q0 22 14.5 36.5t36.5 14.5t37 -14.5t15 -36.5t-15 -37t-37 -15t-36.5 15t-14.5 37z" />
    <glyph glyph-name="Eth" unicode="&#xd0;" horiz-adv-x="730" 
d="M228 71h122q64 0 113.5 22t79 60.5t44.5 86t15 102.5q0 110 -71 185t-186 75h-117v-230h175v-68h-175v-233zM146 674h200q150 0 245 -92.5t95 -239.5q0 -146 -88.5 -244t-247.5 -98h-204v304h-85v68h85v302z" />
    <glyph glyph-name="Ntilde" unicode="&#xd1;" horiz-adv-x="673" 
d="M77 0v674h102l169 -284l171 -292q-4 97 -4 291v285h81v-674h-102l-169 282q-51 85 -94 158.5t-61 105.5l-17 31q5 -104 5 -293v-284h-81zM465 860l49 -34q-32 -69 -99 -69q-27 0 -69.5 22t-58.5 22q-41 0 -68 -48l-43 37q14 30 41.5 50.5t59.5 20.5q30 0 73 -22t61 -22
q34 0 54 43z" />
    <glyph glyph-name="Ograve" unicode="&#xd2;" horiz-adv-x="700" 
d="M48 340q0 159 81.5 253t220.5 94q142 0 222.5 -93.5t80.5 -253.5q0 -159 -81.5 -253.5t-220.5 -94.5q-137 0 -220 95t-83 253zM133 340q0 -125 59.5 -198t158.5 -73q103 0 159.5 72t56.5 199t-57 199t-160 72q-102 0 -159.5 -72.5t-57.5 -198.5zM295 883l98 -156h-69
l-124 156h95z" />
    <glyph glyph-name="Oacute" unicode="&#xd3;" horiz-adv-x="700" 
d="M324 727l99 156h94l-124 -156h-69zM48 340q0 159 81.5 253t220.5 94q142 0 222.5 -93.5t80.5 -253.5q0 -159 -81.5 -253.5t-220.5 -94.5q-137 0 -220 95t-83 253zM133 340q0 -125 59.5 -198t158.5 -73q103 0 159.5 72t56.5 199t-57 199t-160 72q-102 0 -159.5 -72.5
t-57.5 -198.5z" />
    <glyph glyph-name="Ocircumflex" unicode="&#xd4;" horiz-adv-x="700" 
d="M133 340q0 -125 59.5 -198t158.5 -73q103 0 159.5 72t56.5 199t-57 199t-160 72q-102 0 -159.5 -72.5t-57.5 -198.5zM48 340q0 159 81.5 253t220.5 94q142 0 222.5 -93.5t80.5 -253.5q0 -159 -81.5 -253.5t-220.5 -94.5q-137 0 -220 95t-83 253zM319 883h76l127 -156h-80
l-85 105l-85 -105h-80z" />
    <glyph glyph-name="Otilde" unicode="&#xd5;" horiz-adv-x="700" 
d="M48 340q0 159 81.5 253t220.5 94q142 0 222.5 -93.5t80.5 -253.5q0 -159 -81.5 -253.5t-220.5 -94.5q-137 0 -220 95t-83 253zM133 340q0 -125 59.5 -198t158.5 -73q103 0 159.5 72t56.5 199t-57 199t-160 72q-102 0 -159.5 -72.5t-57.5 -198.5zM472 861l49 -34
q-32 -69 -99 -69q-27 0 -69.5 22t-58.5 22q-41 0 -68 -48l-43 37q14 30 41.5 50.5t59.5 20.5q30 0 73 -22t61 -22q34 0 54 43z" />
    <glyph glyph-name="Odieresis" unicode="&#xd6;" horiz-adv-x="700" 
d="M202 806q0 22 15 36.5t37 14.5t36.5 -14.5t14.5 -36.5t-14.5 -37t-36.5 -15t-37 15t-15 37zM404 806q0 22 14.5 36.5t36.5 14.5t37 -14.5t15 -36.5t-15 -37t-37 -15t-36.5 15t-14.5 37zM48 340q0 159 81.5 253t220.5 94q142 0 222.5 -93.5t80.5 -253.5
q0 -159 -81.5 -253.5t-220.5 -94.5q-137 0 -220 95t-83 253zM133 340q0 -125 59.5 -198t158.5 -73q103 0 159.5 72t56.5 199t-57 199t-160 72q-102 0 -159.5 -72.5t-57.5 -198.5z" />
    <glyph glyph-name="multiply" unicode="&#xd7;" horiz-adv-x="491" 
d="M431 475l-135 -134l132 -131l-51 -51l-132 131l-131 -131l-51 52l131 130l-135 134l51 50l135 -133l135 134z" />
    <glyph glyph-name="Oslash" unicode="&#xd8;" horiz-adv-x="675" 
d="M520 518l-304 -408q54 -43 129 -43q103 0 160 72.5t57 200.5q0 109 -42 178zM169 163l304 408q-52 41 -130 41q-102 0 -160 -72.5t-58 -199.5q0 -106 44 -177zM647 687l-75 -101q74 -93 74 -246q0 -159 -81.5 -253.5t-219.5 -94.5q-103 0 -177 54l-41 -55h-86l77 103
q-77 96 -77 246q0 159 81.5 253t220.5 94q105 0 177 -52l39 52h88z" />
    <glyph glyph-name="Ugrave" unicode="&#xd9;" horiz-adv-x="645" 
d="M488 254v420h81v-418q0 -130 -65.5 -197t-182.5 -67q-115 0 -180 65.5t-65 190.5v426h81v-425q0 -93 44.5 -137t119.5 -44q167 0 167 186zM262 883l98 -156h-69l-124 156h95z" />
    <glyph glyph-name="Uacute" unicode="&#xda;" horiz-adv-x="645" 
d="M300 727l99 156h94l-124 -156h-69zM488 254v420h81v-418q0 -130 -65.5 -197t-182.5 -67q-115 0 -180 65.5t-65 190.5v426h81v-425q0 -93 44.5 -137t119.5 -44q167 0 167 186z" />
    <glyph glyph-name="Ucircumflex" unicode="&#xdb;" horiz-adv-x="645" 
d="M488 254v420h81v-418q0 -130 -65.5 -197t-182.5 -67q-115 0 -180 65.5t-65 190.5v426h81v-425q0 -93 44.5 -137t119.5 -44q167 0 167 186zM286 883h76l127 -156h-80l-85 105l-85 -105h-80z" />
    <glyph glyph-name="Udieresis" unicode="&#xdc;" horiz-adv-x="645" 
d="M171 806q0 22 15 36.5t37 14.5t36.5 -14.5t14.5 -36.5t-14.5 -37t-36.5 -15t-37 15t-15 37zM373 806q0 22 14.5 36.5t36.5 14.5t37 -14.5t15 -36.5t-15 -37t-37 -15t-36.5 15t-14.5 37zM488 254v420h81v-418q0 -130 -65.5 -197t-182.5 -67q-115 0 -180 65.5t-65 190.5
v426h81v-425q0 -93 44.5 -137t119.5 -44q167 0 167 186z" />
    <glyph glyph-name="Yacute" unicode="&#xdd;" horiz-adv-x="593" 
d="M472 882l-124 -156h-69l99 156h94zM567 674l-231 -423v-251h-81v250l-229 424h94l51 -99q52 -100 83 -163t36 -76l5 -12q9 25 127 251l51 99h94z" />
    <glyph glyph-name="Thorn" unicode="&#xde;" horiz-adv-x="536" 
d="M158 193h99q79 0 119 38.5t40 99.5q0 69 -41 109.5t-126 40.5h-91v-288zM158 550h88q122 0 187 -59.5t65 -157.5q0 -92 -64.5 -150.5t-179.5 -58.5h-96v-124h-81v674h81v-124z" />
    <glyph glyph-name="germandbls" unicode="&#xdf;" horiz-adv-x="541" 
d="M258 6v76q39 -20 85 -20q42 0 66.5 19.5t24.5 51.5q0 25 -15.5 47t-37.5 39.5t-44 35.5t-37.5 42.5t-15.5 54.5q0 27 12.5 52t28 40.5t28 39.5t12.5 50q0 37 -27 60t-71 23q-112 0 -112 -119v-498h-79v496q0 96 52.5 145t140.5 49q79 0 127.5 -45t48.5 -109
q0 -44 -19.5 -77.5t-38.5 -57t-19 -43.5q0 -18 15 -35.5t36 -34t42 -36t36 -49.5t15 -66q0 -63 -44.5 -103.5t-123.5 -40.5q-55 0 -86 13z" />
    <glyph glyph-name="agrave" unicode="&#xe0;" horiz-adv-x="492" 
d="M291 560h-69l-124 156h95zM346 234h-88q-64 0 -96 -25t-32 -63t25 -61.5t73 -23.5q54 0 86 30.5t32 77.5v65zM84 401v79q57 35 150 35q191 0 191 -194v-321h-78v60q-39 -65 -142 -65q-71 0 -114.5 42t-43.5 106q0 73 55.5 113.5t151.5 40.5h92v26q0 60 -27 90.5t-91 30.5
q-81 0 -144 -43z" />
    <glyph glyph-name="aacute" unicode="&#xe1;" horiz-adv-x="492" 
d="M416 716l-124 -156h-69l99 156h94zM346 234h-88q-64 0 -96 -25t-32 -63t25 -61.5t73 -23.5q54 0 86 30.5t32 77.5v65zM84 401v79q57 35 150 35q191 0 191 -194v-321h-78v60q-39 -65 -142 -65q-71 0 -114.5 42t-43.5 106q0 73 55.5 113.5t151.5 40.5h92v26q0 60 -27 90.5
t-91 30.5q-81 0 -144 -43z" />
    <glyph glyph-name="acircumflex" unicode="&#xe2;" horiz-adv-x="492" 
d="M254 664l-85 -105h-80l127 156h76l127 -156h-80zM346 234h-88q-64 0 -96 -25t-32 -63t25 -61.5t73 -23.5q54 0 86 30.5t32 77.5v65zM84 401v79q57 35 150 35q191 0 191 -194v-321h-78v60q-39 -65 -142 -65q-71 0 -114.5 42t-43.5 106q0 73 55.5 113.5t151.5 40.5h92v26
q0 60 -27 90.5t-91 30.5q-81 0 -144 -43z" />
    <glyph glyph-name="atilde" unicode="&#xe3;" horiz-adv-x="492" 
d="M370 693l49 -34q-32 -69 -99 -69q-27 0 -69.5 22t-58.5 22q-41 0 -68 -48l-43 37q14 30 41.5 50.5t59.5 20.5q30 0 73 -22t61 -22q34 0 54 43zM346 234h-88q-64 0 -96 -25t-32 -63t25 -61.5t73 -23.5q54 0 86 30.5t32 77.5v65zM84 401v79q57 35 150 35q191 0 191 -194
v-321h-78v60q-39 -65 -142 -65q-71 0 -114.5 42t-43.5 106q0 73 55.5 113.5t151.5 40.5h92v26q0 60 -27 90.5t-91 30.5q-81 0 -144 -43z" />
    <glyph glyph-name="adieresis" unicode="&#xe4;" horiz-adv-x="492" 
d="M353 584q-22 0 -36.5 15t-14.5 37t14.5 36.5t36.5 14.5t37 -14.5t15 -36.5t-15 -37t-37 -15zM152 584q-22 0 -37 15t-15 37t15 36.5t37 14.5t36.5 -14.5t14.5 -36.5t-14.5 -37t-36.5 -15zM346 234h-88q-64 0 -96 -25t-32 -63t25 -61.5t73 -23.5q54 0 86 30.5t32 77.5v65z
M84 401v79q57 35 150 35q191 0 191 -194v-321h-78v60q-39 -65 -142 -65q-71 0 -114.5 42t-43.5 106q0 73 55.5 113.5t151.5 40.5h92v26q0 60 -27 90.5t-91 30.5q-81 0 -144 -43z" />
    <glyph glyph-name="aring" unicode="&#xe5;" horiz-adv-x="492" 
d="M255 711q-22 0 -37.5 -15.5t-15.5 -38.5q0 -22 15.5 -38t37.5 -16t38 16t16 38q0 23 -15.5 38.5t-38.5 15.5zM255 550q-44 0 -75 31t-31 75t31 75.5t75 31.5t75 -31.5t31 -75.5t-31 -75t-75 -31zM346 234h-88q-64 0 -96 -25t-32 -63t25 -61.5t73 -23.5q54 0 86 30.5
t32 77.5v65zM84 401v79q57 35 150 35q191 0 191 -194v-321h-78v60q-39 -65 -142 -65q-71 0 -114.5 42t-43.5 106q0 73 55.5 113.5t151.5 40.5h92v26q0 60 -27 90.5t-91 30.5q-81 0 -144 -43z" />
    <glyph glyph-name="ae" unicode="&#xe6;" horiz-adv-x="819" 
d="M351 177v55h-75q-142 0 -142 -87q0 -37 25.5 -59t73.5 -22q50 0 84 31t34 82zM701 286v20q-1 66 -35.5 102t-90.5 36t-96.5 -40t-49.5 -118h272zM774 220h-344q9 -75 58 -115t121 -40q83 0 134 35v-74q-57 -31 -140 -31q-65 0 -121 28t-86 76q-19 -46 -66 -75t-115 -29
q-73 0 -118 39.5t-45 107.5q0 74 56 115t153 41h90v25q0 60 -27 90.5t-91 30.5q-80 0 -144 -42v77q58 36 147 36q129 0 165 -90q59 88 175 88q98 0 150.5 -61.5t52.5 -176.5q0 -28 -5 -55z" />
    <glyph glyph-name="ccedilla" unicode="&#xe7;" horiz-adv-x="471" 
d="M125 251q1 -82 50 -136.5t139 -54.5q58 0 108 33v-75q-48 -29 -118 -29q-120 0 -190.5 76.5t-70.5 186.5q0 108 70.5 186t192.5 78q65 0 116 -28v-75q-46 31 -108 31q-86 0 -137.5 -55.5t-51.5 -137.5zM339 -122q0 -54 -38.5 -91t-111.5 -39v58q84 6 84 71q0 34 -23 72
h71q18 -25 18 -71z" />
    <glyph glyph-name="egrave" unicode="&#xe8;" horiz-adv-x="522" 
d="M318 560h-69l-124 156h95zM396 286v20q0 63 -34 100.5t-94 37.5q-57 0 -97 -41t-47 -117h272zM443 100v-74q-59 -31 -144 -31q-115 0 -185.5 70.5t-70.5 186.5q0 121 63 191t162 70q95 0 151 -61t56 -173q0 -32 -5 -59h-346q9 -75 57 -115t126 -40q85 0 136 35z" />
    <glyph glyph-name="eacute" unicode="&#xe9;" horiz-adv-x="522" 
d="M444 716l-124 -156h-69l99 156h94zM396 286v20q0 63 -34 100.5t-94 37.5q-57 0 -97 -41t-47 -117h272zM443 100v-74q-59 -31 -144 -31q-115 0 -185.5 70.5t-70.5 186.5q0 121 63 191t162 70q95 0 151 -61t56 -173q0 -32 -5 -59h-346q9 -75 57 -115t126 -40q85 0 136 35z
" />
    <glyph glyph-name="ecircumflex" unicode="&#xea;" horiz-adv-x="522" 
d="M281 665l-85 -105h-80l127 156h76l127 -156h-80zM396 286v20q0 63 -34 100.5t-94 37.5q-57 0 -97 -41t-47 -117h272zM443 100v-74q-59 -31 -144 -31q-115 0 -185.5 70.5t-70.5 186.5q0 121 63 191t162 70q95 0 151 -61t56 -173q0 -32 -5 -59h-346q9 -75 57 -115t126 -40
q85 0 136 35z" />
    <glyph glyph-name="edieresis" unicode="&#xeb;" horiz-adv-x="522" 
d="M382 587q-22 0 -36.5 15t-14.5 37t14.5 36.5t36.5 14.5t37 -14.5t15 -36.5t-15 -37t-37 -15zM181 587q-22 0 -37 15t-15 37t15 36.5t37 14.5t36.5 -14.5t14.5 -36.5t-14.5 -37t-36.5 -15zM396 286v20q0 63 -34 100.5t-94 37.5q-57 0 -97 -41t-47 -117h272zM443 100v-74
q-59 -31 -144 -31q-115 0 -185.5 70.5t-70.5 186.5q0 121 63 191t162 70q95 0 151 -61t56 -173q0 -32 -5 -59h-346q9 -75 57 -115t126 -40q85 0 136 35z" />
    <glyph glyph-name="igrave" unicode="&#xec;" horiz-adv-x="233" 
d="M77 0v507h79v-507h-79zM47 715l98 -156h-69l-124 156h95z" />
    <glyph glyph-name="iacute" unicode="&#xed;" horiz-adv-x="233" 
d="M77 0v507h79v-507h-79zM88 560l99 156h94l-124 -156h-69z" />
    <glyph glyph-name="icircumflex" unicode="&#xee;" horiz-adv-x="233" 
d="M79 716h76l127 -156h-80l-85 105l-85 -105h-80zM77 0v507h79v-507h-79z" />
    <glyph glyph-name="idieresis" unicode="&#xef;" horiz-adv-x="233" 
d="M77 0v507h79v-507h-79zM-36 640q0 22 15 36.5t37 14.5t36.5 -14.5t14.5 -36.5t-14.5 -37t-36.5 -15t-37 15t-15 37zM166 640q0 22 14.5 36.5t36.5 14.5t37 -14.5t15 -36.5t-15 -37t-37 -15t-36.5 15t-14.5 37z" />
    <glyph glyph-name="eth" unicode="&#xf0;" horiz-adv-x="517" 
d="M251 64q61 0 101.5 46.5t43.5 145.5q-60 79 -151 79q-54 0 -89.5 -35.5t-35.5 -99.5q0 -62 37 -99t94 -37zM452 613l-85 -44q104 -134 104 -300q0 -136 -59 -207t-161 -71q-95 0 -154 62t-59 149q0 96 59 151t142 55q92 0 151 -68q-18 106 -89 196l-140 -72v61l102 52
q-59 59 -132 97h124q40 -26 75 -62l122 62v-61z" />
    <glyph glyph-name="ntilde" unicode="&#xf1;" horiz-adv-x="540" 
d="M400 693l49 -34q-32 -69 -99 -69q-27 0 -69.5 22t-58.5 22q-41 0 -68 -48l-43 37q14 30 41.5 50.5t59.5 20.5q30 0 73 -22t61 -22q34 0 54 43zM151 507v-88q45 95 160 95q74 0 118 -45t44 -120v-349h-79v328q0 56 -28.5 85.5t-74.5 29.5q-57 0 -98.5 -44t-41.5 -122v-277
h-78v507h78z" />
    <glyph glyph-name="ograve" unicode="&#xf2;" horiz-adv-x="562" 
d="M279 -9q-109 0 -172.5 73.5t-63.5 185.5q0 113 65.5 188.5t170.5 75.5q115 0 177.5 -74t62.5 -188q0 -113 -64 -187t-176 -74zM279 444q-72 0 -113 -56t-41 -137q0 -79 42 -134.5t112 -55.5q76 0 117 54.5t41 135.5q0 84 -39 138.5t-119 54.5zM220 716l98 -156h-69
l-124 156h95z" />
    <glyph glyph-name="oacute" unicode="&#xf3;" horiz-adv-x="562" 
d="M258 560l99 156h94l-124 -156h-69zM279 -9q-109 0 -172.5 73.5t-63.5 185.5q0 113 65.5 188.5t170.5 75.5q115 0 177.5 -74t62.5 -188q0 -113 -64 -187t-176 -74zM279 444q-72 0 -113 -56t-41 -137q0 -79 42 -134.5t112 -55.5q76 0 117 54.5t41 135.5q0 84 -39 138.5
t-119 54.5z" />
    <glyph glyph-name="ocircumflex" unicode="&#xf4;" horiz-adv-x="562" 
d="M279 444q-72 0 -113 -56t-41 -137q0 -79 42 -134.5t112 -55.5q76 0 117 54.5t41 135.5q0 84 -39 138.5t-119 54.5zM279 -9q-109 0 -172.5 73.5t-63.5 185.5q0 113 65.5 188.5t170.5 75.5q115 0 177.5 -74t62.5 -188q0 -113 -64 -187t-176 -74zM246 715h76l127 -156h-80
l-85 105l-85 -105h-80z" />
    <glyph glyph-name="otilde" unicode="&#xf5;" horiz-adv-x="562" 
d="M279 -9q-109 0 -172.5 73.5t-63.5 185.5q0 113 65.5 188.5t170.5 75.5q115 0 177.5 -74t62.5 -188q0 -113 -64 -187t-176 -74zM279 444q-72 0 -113 -56t-41 -137q0 -79 42 -134.5t112 -55.5q76 0 117 54.5t41 135.5q0 84 -39 138.5t-119 54.5zM404 693l49 -34
q-32 -69 -99 -69q-27 0 -69.5 22t-58.5 22q-41 0 -68 -48l-43 37q14 30 41.5 50.5t59.5 20.5q30 0 73 -22t61 -22q34 0 54 43z" />
    <glyph glyph-name="odieresis" unicode="&#xf6;" horiz-adv-x="562" 
d="M137 637q0 22 15 36.5t37 14.5t36.5 -14.5t14.5 -36.5t-14.5 -37t-36.5 -15t-37 15t-15 37zM339 637q0 22 14.5 36.5t36.5 14.5t37 -14.5t15 -36.5t-15 -37t-37 -15t-36.5 15t-14.5 37zM279 -9q-109 0 -172.5 73.5t-63.5 185.5q0 113 65.5 188.5t170.5 75.5
q115 0 177.5 -74t62.5 -188q0 -113 -64 -187t-176 -74zM279 444q-72 0 -113 -56t-41 -137q0 -79 42 -134.5t112 -55.5q76 0 117 54.5t41 135.5q0 84 -39 138.5t-119 54.5z" />
    <glyph glyph-name="divide" unicode="&#xf7;" horiz-adv-x="553" 
d="M223 518q0 22 15.5 37.5t37.5 15.5q21 0 36.5 -15.5t15.5 -37.5q0 -21 -15.5 -36.5t-36.5 -15.5q-22 0 -37.5 15.5t-15.5 36.5zM57 304v72h440v-72h-440zM223 162q0 21 15.5 36.5t37.5 15.5q21 0 36.5 -15.5t15.5 -36.5q0 -22 -15.5 -37.5t-36.5 -15.5q-22 0 -37.5 15.5
t-15.5 37.5z" />
    <glyph glyph-name="oslash" unicode="&#xf8;" horiz-adv-x="563" 
d="M428 375l-221 -293q38 -27 86 -27q79 0 121 56t42 140q0 72 -28 124zM163 133l220 292q-38 25 -91 25q-75 0 -117 -57.5t-42 -141.5q0 -69 30 -118zM533 514l-59 -78q59 -73 59 -184q0 -113 -64 -187t-176 -74q-72 0 -128 35l-27 -35h-82l59 79q-59 71 -59 180
q0 112 66 188t171 76q75 0 131 -35l26 35h83z" />
    <glyph glyph-name="ugrave" unicode="&#xf9;" horiz-adv-x="540" 
d="M304 559h-69l-124 156h95zM388 507h79v-507h-79v88q-40 -94 -159 -94q-75 0 -118.5 44.5t-43.5 119.5v349h79v-329q0 -55 28 -84t76 -29q63 0 100.5 44t37.5 119v279z" />
    <glyph glyph-name="uacute" unicode="&#xfa;" horiz-adv-x="540" 
d="M433 716l-124 -156h-69l99 156h94zM388 507h79v-507h-79v88q-40 -94 -159 -94q-75 0 -118.5 44.5t-43.5 119.5v349h79v-329q0 -55 28 -84t76 -29q63 0 100.5 44t37.5 119v279z" />
    <glyph glyph-name="ucircumflex" unicode="&#xfb;" horiz-adv-x="540" 
d="M269 665l-85 -105h-80l127 156h76l127 -156h-80zM388 507h79v-507h-79v88q-40 -94 -159 -94q-75 0 -118.5 44.5t-43.5 119.5v349h79v-329q0 -55 28 -84t76 -29q63 0 100.5 44t37.5 119v279z" />
    <glyph glyph-name="udieresis" unicode="&#xfc;" horiz-adv-x="540" 
d="M371 585q-22 0 -36.5 15t-14.5 37t14.5 36.5t36.5 14.5t37 -14.5t15 -36.5t-15 -37t-37 -15zM170 585q-22 0 -37 15t-15 37t15 36.5t37 14.5t36.5 -14.5t14.5 -36.5t-14.5 -37t-36.5 -15zM388 507h79v-507h-79v88q-40 -94 -159 -94q-75 0 -118.5 44.5t-43.5 119.5v349h79
v-329q0 -55 28 -84t76 -29q63 0 100.5 44t37.5 119v279z" />
    <glyph glyph-name="yacute" unicode="&#xfd;" horiz-adv-x="493" 
d="M222 560l99 156h94l-124 -156h-69zM213 13l-205 494h89l66 -167l89 -230q8 26 80 230l59 167h85l-183 -494q-39 -103 -92.5 -145t-122.5 -42q-26 0 -42 5v71q15 -4 34 -4q101 0 143 115z" />
    <glyph glyph-name="thorn" unicode="&#xfe;" horiz-adv-x="567" 
d="M296 64q64 0 105 50.5t41 143.5q0 83 -40 134t-101 51t-105.5 -44.5t-44.5 -145.5q0 -97 45 -143t100 -46zM151 707v-277q53 85 157 85q101 0 158.5 -73.5t57.5 -183.5q0 -117 -60.5 -191.5t-157.5 -74.5q-100 0 -155 85v-274h-78v904h78z" />
    <glyph glyph-name="ydieresis" unicode="&#xff;" horiz-adv-x="493" 
d="M305 637q0 22 14.5 36.5t36.5 14.5t37 -14.5t15 -36.5t-15 -37t-37 -15t-36.5 15t-14.5 37zM103 637q0 22 15 36.5t37 14.5t36.5 -14.5t14.5 -36.5t-14.5 -37t-36.5 -15t-37 15t-15 37zM213 13l-205 494h89l66 -167l89 -230q8 26 80 230l59 167h85l-183 -494
q-39 -103 -92.5 -145t-122.5 -42q-26 0 -42 5v71q15 -4 34 -4q101 0 143 115z" />
    <glyph glyph-name="Amacron" unicode="&#x100;" horiz-adv-x="648" 
d="M468 833v-56h-282v56h282zM205 246h239l-13 39l-105 324q-12 -43 -108 -325zM526 0l-59 177h-285l-60 -177h-87l235 674h112l231 -674h-87z" />
    <glyph glyph-name="amacron" unicode="&#x101;" horiz-adv-x="492" 
d="M388 666v-56h-282v56h282zM346 234h-88q-64 0 -96 -25t-32 -63t25 -61.5t73 -23.5q54 0 86 30.5t32 77.5v65zM84 401v79q57 35 150 35q191 0 191 -194v-321h-78v60q-39 -65 -142 -65q-71 0 -114.5 42t-43.5 106q0 73 55.5 113.5t151.5 40.5h92v26q0 60 -27 90.5t-91 30.5
q-81 0 -144 -43z" />
    <glyph glyph-name="Abreve" unicode="&#x102;" horiz-adv-x="648" 
d="M425 882h65q0 -73 -41 -116t-123 -43t-123.5 43t-41.5 116h65q0 -46 24 -74t76 -28q51 0 75 28t24 74zM205 246h239l-13 39l-105 324q-12 -43 -108 -325zM526 0l-59 177h-285l-60 -177h-87l235 674h112l231 -674h-87z" />
    <glyph glyph-name="abreve" unicode="&#x103;" horiz-adv-x="492" 
d="M349 715h65q0 -73 -41 -116t-123 -43t-123.5 43t-41.5 116h65q0 -46 24 -74t76 -28q51 0 75 28t24 74zM346 234h-88q-64 0 -96 -25t-32 -63t25 -61.5t73 -23.5q54 0 86 30.5t32 77.5v65zM84 401v79q57 35 150 35q191 0 191 -194v-321h-78v60q-39 -65 -142 -65
q-71 0 -114.5 42t-43.5 106q0 73 55.5 113.5t151.5 40.5h92v26q0 60 -27 90.5t-91 30.5q-81 0 -144 -43z" />
    <glyph glyph-name="Aogonek" unicode="&#x104;" horiz-adv-x="646" 
d="M204 246h239l-13 39l-105 324q-12 -43 -108 -325zM381 674l231 -674q-112 -55 -112 -125q0 -29 17 -44t47 -15q38 0 69 22v-60q-31 -20 -79 -20q-59 0 -91 31t-32 79q0 84 91 142l-56 167h-285l-60 -177h-87l235 674h112z" />
    <glyph glyph-name="aogonek" unicode="&#x105;" horiz-adv-x="491" 
d="M346 232h-75q-142 0 -142 -87q0 -37 25.5 -59t73.5 -22q51 0 84.5 29t33.5 69v70zM425 321v-321q-112 -55 -112 -125q0 -29 17 -44t47 -15q38 0 69 22v-60q-31 -20 -79 -20q-59 0 -91 31t-32 79q0 45 29 83t74 65v47q-51 -68 -142 -68q-71 0 -114.5 40.5t-43.5 106.5
q0 74 56 115t153 41h90v25q0 60 -27 90.5t-91 30.5q-80 0 -144 -42v77q58 36 150 36q191 0 191 -194z" />
    <glyph glyph-name="Cacute" unicode="&#x106;" horiz-adv-x="602" 
d="M558 647v-83q-44 23 -79 33t-92 10q-109 0 -181.5 -74t-72.5 -193q0 -124 72 -198t191 -74q96 0 164 51v-85q-62 -42 -170 -42q-152 0 -247 93.5t-95 254.5q0 152 96.5 247.5t242.5 95.5q105 0 171 -36zM330 727l99 156h94l-124 -156h-69z" />
    <glyph glyph-name="cacute" unicode="&#x107;" horiz-adv-x="471" 
d="M259 559l99 156h94l-124 -156h-69zM125 251q1 -82 50 -136.5t139 -54.5q58 0 108 33v-75q-48 -29 -118 -29q-120 0 -190.5 76.5t-70.5 186.5q0 108 70.5 186t192.5 78q65 0 116 -28v-75q-46 31 -108 31q-86 0 -137.5 -55.5t-51.5 -137.5z" />
    <glyph glyph-name="Ccaron" unicode="&#x10c;" horiz-adv-x="602" 
d="M558 647v-83q-44 23 -79 33t-92 10q-109 0 -181.5 -74t-72.5 -193q0 -124 72 -198t191 -74q96 0 164 51v-85q-62 -42 -170 -42q-152 0 -247 93.5t-95 254.5q0 152 96.5 247.5t242.5 95.5q105 0 171 -36zM416 727h-76l-127 156h80l86 -105l84 105h80z" />
    <glyph glyph-name="ccaron" unicode="&#x10d;" horiz-adv-x="471" 
d="M422 488v-75q-46 31 -108 31q-86 0 -137.5 -55.5t-51.5 -137.5q1 -82 50 -136.5t139 -54.5q58 0 108 33v-75q-48 -29 -118 -29q-120 0 -190.5 76.5t-70.5 186.5q0 108 70.5 186t192.5 78q65 0 116 -28zM313 560h-76l-127 156h80l86 -105l84 105h80z" />
    <glyph glyph-name="Dcaron" unicode="&#x10e;" horiz-adv-x="661" 
d="M344 726h-76l-127 156h80l86 -105l84 105h80zM159 71h121q125 0 189 77.5t64 193.5q0 110 -71.5 185t-185.5 75h-117v-531zM77 674h200q149 0 244.5 -92.5t95.5 -239.5q0 -146 -88.5 -244t-247.5 -98h-204v674z" />
    <glyph glyph-name="dcaron" unicode="&#x10f;" horiz-adv-x="660" 
d="M266 64q62 0 105.5 46t43.5 147q0 96 -45 141t-99 45q-63 0 -104.5 -50.5t-41.5 -144.5q0 -82 40 -133t101 -51zM415 430v277h79v-707h-79v75q-54 -83 -156 -83q-101 0 -158.5 75t-57.5 182q0 119 61 192.5t157 73.5q99 0 154 -85zM636 707h92l-111 -192h-65z" />
    <glyph glyph-name="Dcroat" unicode="&#x110;" horiz-adv-x="730" 
d="M228 71h122q64 0 113.5 22t79 60.5t44.5 86t15 102.5q0 110 -71 185t-186 75h-117v-230h175v-68h-175v-233zM146 674h200q150 0 245 -92.5t95 -239.5q0 -146 -88.5 -244t-247.5 -98h-204v304h-85v68h85v302z" />
    <glyph glyph-name="dcroat" unicode="&#x111;" horiz-adv-x="567" 
d="M266 64q62 0 105.5 46t43.5 147q0 96 -45 141t-99 45q-63 0 -104.5 -50.5t-41.5 -144.5q0 -82 40 -133t101 -51zM565 642v-55h-71v-587h-79v75q-54 -83 -156 -83q-101 0 -158.5 75t-57.5 182q0 119 61 192.5t157 73.5q99 0 154 -85v157h-193v55h193v65h79v-65h71z" />
    <glyph glyph-name="Emacron" unicode="&#x112;" horiz-adv-x="501" 
d="M404 834v-56h-282v56h282zM158 71h295v-71h-376v674h371v-71h-290v-231h256v-71h-256v-230z" />
    <glyph glyph-name="emacron" unicode="&#x113;" horiz-adv-x="522" 
d="M417 666v-56h-282v56h282zM396 286v20q0 63 -34 100.5t-94 37.5q-57 0 -97 -41t-47 -117h272zM443 100v-74q-59 -31 -144 -31q-115 0 -185.5 70.5t-70.5 186.5q0 121 63 191t162 70q95 0 151 -61t56 -173q0 -32 -5 -59h-346q9 -75 57 -115t126 -40q85 0 136 35z" />
    <glyph glyph-name="Edotaccent" unicode="&#x116;" horiz-adv-x="501" 
d="M275 755q-22 0 -37 15t-15 37t15 36.5t37 14.5t36.5 -14.5t14.5 -36.5t-14.5 -37t-36.5 -15zM158 71h295v-71h-376v674h371v-71h-290v-231h256v-71h-256v-230z" />
    <glyph glyph-name="edotaccent" unicode="&#x117;" horiz-adv-x="522" 
d="M282 587q-22 0 -37 15t-15 37t15 36.5t37 14.5t36.5 -14.5t14.5 -36.5t-14.5 -37t-36.5 -15zM396 286v20q0 63 -34 100.5t-94 37.5q-57 0 -97 -41t-47 -117h272zM443 100v-74q-59 -31 -144 -31q-115 0 -185.5 70.5t-70.5 186.5q0 121 63 191t162 70q95 0 151 -61t56 -173
q0 -32 -5 -59h-346q9 -75 57 -115t126 -40q85 0 136 35z" />
    <glyph glyph-name="Eogonek" unicode="&#x118;" horiz-adv-x="501" 
d="M453 0h-89q-113 -56 -113 -125q0 -29 17.5 -44t47.5 -15q39 0 68 22v-61q-32 -19 -79 -19q-58 0 -90 31t-32 79q0 74 78 132h-184v674h371v-71h-290v-231h256v-71h-256v-230h295v-71z" />
    <glyph glyph-name="eogonek" unicode="&#x119;" horiz-adv-x="522" 
d="M396 286v20q0 63 -34 100.5t-94 37.5q-57 0 -97 -41t-47 -117h272zM386 -158v-61q-32 -19 -79 -19q-58 0 -90 31t-32 79q0 69 70 126q-97 14 -154.5 82t-57.5 172q0 121 63 191t162 70q95 0 151 -61t56 -173q0 -32 -5 -59h-346q9 -75 57 -115t126 -40q85 0 136 35v-74
q-34 -18 -85 -26q-105 -55 -105 -121q0 -29 17.5 -44t47.5 -15q39 0 68 22z" />
    <glyph glyph-name="Ecaron" unicode="&#x11a;" horiz-adv-x="501" 
d="M309 726h-76l-127 156h80l86 -105l84 105h80zM158 71h295v-71h-376v674h371v-71h-290v-231h256v-71h-256v-230z" />
    <glyph glyph-name="ecaron" unicode="&#x11b;" horiz-adv-x="522" 
d="M312 560h-76l-127 156h80l86 -105l84 105h80zM396 286v20q0 63 -34 100.5t-94 37.5q-57 0 -97 -41t-47 -117h272zM443 100v-74q-59 -31 -144 -31q-115 0 -185.5 70.5t-70.5 186.5q0 121 63 191t162 70q95 0 151 -61t56 -173q0 -32 -5 -59h-346q9 -75 57 -115t126 -40
q85 0 136 35z" />
    <glyph glyph-name="Gbreve" unicode="&#x11e;" horiz-adv-x="670" 
d="M468 883h65q0 -73 -41 -116t-123 -43t-123.5 43t-41.5 116h65q0 -46 24 -74t76 -28q51 0 75 28t24 74zM603 378v-322h-1l1 -3q-81 -61 -209 -61q-156 0 -251 92.5t-95 253.5q0 153 94.5 250.5t238.5 97.5q119 0 197 -46v-87q-82 54 -190 54q-113 0 -184 -73.5t-71 -195.5
q0 -125 70 -196.5t193 -71.5q68 0 126 27v210h-148v71h229z" />
    <glyph glyph-name="gbreve" unicode="&#x11f;" horiz-adv-x="549" 
d="M391 716h65q0 -73 -41 -116t-123 -43t-123.5 43t-41.5 116h65q0 -46 24 -74t76 -28q51 0 75 28t24 74zM263 83q55 0 97.5 42.5t42.5 126.5q0 97 -41 144t-95 47q-65 0 -103 -51.5t-38 -134.5q0 -85 42 -129.5t95 -44.5zM403 507h79v-466q0 -116 -64 -174.5t-165 -58.5
q-92 0 -157 31v79q64 -37 150 -37q73 0 115 39t42 122v57q-50 -86 -149 -86q-87 0 -148.5 64t-61.5 178q0 113 57 186t149 73q104 0 153 -91v84z" />
    <glyph glyph-name="uni0122" unicode="&#x122;" horiz-adv-x="670" 
d="M245 -243l84 192h92l-111 -192h-65zM603 378v-322h-1l1 -3q-81 -61 -209 -61q-156 0 -251 92.5t-95 253.5q0 153 94.5 250.5t238.5 97.5q119 0 197 -46v-87q-82 54 -190 54q-113 0 -184 -73.5t-71 -195.5q0 -125 70 -196.5t193 -71.5q68 0 126 27v210h-148v71h229z" />
    <glyph glyph-name="uni0123" unicode="&#x123;" horiz-adv-x="549" 
d="M438 752l-85 -192h-91l111 192h65zM263 83q55 0 97.5 42.5t42.5 126.5q0 97 -41 144t-95 47q-65 0 -103 -51.5t-38 -134.5q0 -85 42 -129.5t95 -44.5zM403 507h79v-466q0 -116 -64 -174.5t-165 -58.5q-92 0 -157 31v79q64 -37 150 -37q73 0 115 39t42 122v57
q-50 -86 -149 -86q-87 0 -148.5 64t-61.5 178q0 113 57 186t149 73q104 0 153 -91v84z" />
    <glyph glyph-name="Imacron" unicode="&#x12a;" horiz-adv-x="247" 
d="M83 0v674h81v-674h-81zM265 777h-282v56h282v-56z" />
    <glyph glyph-name="imacron" unicode="&#x12b;" horiz-adv-x="233" 
d="M77 0v507h79v-507h-79zM258 610h-282v56h282v-56z" />
    <glyph glyph-name="Iogonek" unicode="&#x12e;" horiz-adv-x="247" 
d="M164 1l1 -1q-113 -56 -113 -125q0 -29 17.5 -44t47.5 -15q39 0 68 22v-61q-32 -19 -79 -19q-58 0 -90 31t-32 79q0 86 99 146v660h81v-673z" />
    <glyph glyph-name="iogonek" unicode="&#x12f;" horiz-adv-x="233" 
d="M116 615q-22 0 -36.5 14.5t-14.5 36.5t14.5 37t36.5 15t37 -15t15 -37t-15 -36.5t-37 -14.5zM156 507v-507q-113 -56 -113 -125q0 -29 17.5 -44t47.5 -15q39 0 68 22v-61q-32 -19 -79 -19q-58 0 -90 31t-32 79q0 45 28.5 83.5t73.5 64.5v491h79z" />
    <glyph glyph-name="Idotaccent" unicode="&#x130;" horiz-adv-x="247" 
d="M83 0v674h81v-674h-81zM73 808q0 22 15 36.5t37 14.5t36.5 -14.5t14.5 -36.5t-14.5 -37t-36.5 -15t-37 15t-15 37z" />
    <glyph glyph-name="dotlessi" unicode="&#x131;" horiz-adv-x="233" 
d="M77 0v507h79v-507h-79z" />
    <glyph glyph-name="uni0136" unicode="&#x136;" horiz-adv-x="573" 
d="M77 0v674h81v-674h-81zM165 -243l85 192h91l-111 -192h-65zM274 333l271 -333h-105l-266 333l257 341h100z" />
    <glyph glyph-name="uni0137" unicode="&#x137;" horiz-adv-x="480" 
d="M151 703v-703h-78v703h78zM117 -243l85 192h91l-111 -192h-65zM254 266l206 -266h-95l-204 266l199 241h94z" />
    <glyph glyph-name="Lacute" unicode="&#x139;" horiz-adv-x="477" 
d="M448 883l-124 -156h-69l99 156h94zM158 674v-601h287v-73h-368v674h81z" />
    <glyph glyph-name="lacute" unicode="&#x13a;" horiz-adv-x="233" 
d="M84 760l99 156h94l-124 -156h-69zM77 0v707h79v-707h-79z" />
    <glyph glyph-name="uni013B" unicode="&#x13b;" horiz-adv-x="477" 
d="M139 -243l84 192h92l-111 -192h-65zM158 73h287v-73h-368v674h81v-601z" />
    <glyph glyph-name="uni013C" unicode="&#x13c;" horiz-adv-x="233" 
d="M77 0v707h79v-707h-79zM-13 -243l84 192h92l-111 -192h-65z" />
    <glyph glyph-name="Lcaron" unicode="&#x13d;" horiz-adv-x="477" 
d="M424 701l-111 -192h-65l85 192h91zM158 73h287v-73h-368v674h81v-601z" />
    <glyph glyph-name="lcaron" unicode="&#x13e;" horiz-adv-x="259" 
d="M77 0v707h79v-707h-79zM223 515l85 192h91l-111 -192h-65z" />
    <glyph glyph-name="Lslash" unicode="&#x141;" horiz-adv-x="500" 
d="M178 73h287v-73h-368v245l-68 -47v77l68 47v352h81v-296l150 104v-78l-150 -103v-228z" />
    <glyph glyph-name="lslash" unicode="&#x142;" horiz-adv-x="291" 
d="M261 495v-78l-81 -57v-360h-79v304l-68 -48v77l68 48v326h79v-270z" />
    <glyph glyph-name="Nacute" unicode="&#x143;" horiz-adv-x="673" 
d="M326 726l99 156h94l-124 -156h-69zM77 0v674h102l169 -284l171 -292q-4 97 -4 291v285h81v-674h-102l-169 282q-51 85 -94 158.5t-61 105.5l-17 31q5 -104 5 -293v-284h-81z" />
    <glyph glyph-name="nacute" unicode="&#x144;" horiz-adv-x="540" 
d="M459 716l-124 -156h-69l99 156h94zM151 507v-88q45 95 160 95q74 0 118 -45t44 -120v-349h-79v328q0 56 -28.5 85.5t-74.5 29.5q-57 0 -98.5 -44t-41.5 -122v-277h-78v507h78z" />
    <glyph glyph-name="uni0145" unicode="&#x145;" horiz-adv-x="673" 
d="M218 -243l84 192h92l-111 -192h-65zM77 0v674h102l169 -284l171 -292q-4 97 -4 291v285h81v-674h-102l-169 282q-51 85 -94 158.5t-61 105.5l-17 31q5 -104 5 -293v-284h-81z" />
    <glyph glyph-name="uni0146" unicode="&#x146;" horiz-adv-x="540" 
d="M149 -243l84 192h92l-111 -192h-65zM151 507v-88q45 95 160 95q74 0 118 -45t44 -120v-349h-79v328q0 56 -28.5 85.5t-74.5 29.5q-57 0 -98.5 -44t-41.5 -122v-277h-78v507h78z" />
    <glyph glyph-name="Ncaron" unicode="&#x147;" horiz-adv-x="673" 
d="M77 0v674h102l169 -284l171 -292q-4 97 -4 291v285h81v-674h-102l-169 282q-51 85 -94 158.5t-61 105.5l-17 31q5 -104 5 -293v-284h-81zM391 727h-76l-127 156h80l86 -105l84 105h80z" />
    <glyph glyph-name="ncaron" unicode="&#x148;" horiz-adv-x="540" 
d="M325 560h-76l-127 156h80l86 -105l84 105h80zM151 507v-88q45 95 160 95q74 0 118 -45t44 -120v-349h-79v328q0 56 -28.5 85.5t-74.5 29.5q-57 0 -98.5 -44t-41.5 -122v-277h-78v507h78z" />
    <glyph glyph-name="Omacron" unicode="&#x14c;" horiz-adv-x="700" 
d="M492 777h-282v56h282v-56zM48 340q0 159 81.5 253t220.5 94q142 0 222.5 -93.5t80.5 -253.5q0 -159 -81.5 -253.5t-220.5 -94.5q-137 0 -220 95t-83 253zM133 340q0 -125 59.5 -198t158.5 -73q103 0 159.5 72t56.5 199t-57 199t-160 72q-102 0 -159.5 -72.5t-57.5 -198.5
z" />
    <glyph glyph-name="omacron" unicode="&#x14d;" horiz-adv-x="562" 
d="M425 610h-282v56h282v-56zM279 -9q-109 0 -172.5 73.5t-63.5 185.5q0 113 65.5 188.5t170.5 75.5q115 0 177.5 -74t62.5 -188q0 -113 -64 -187t-176 -74zM279 444q-72 0 -113 -56t-41 -137q0 -79 42 -134.5t112 -55.5q76 0 117 54.5t41 135.5q0 84 -39 138.5t-119 54.5z
" />
    <glyph glyph-name="Ohungarumlaut" unicode="&#x150;" horiz-adv-x="700" 
d="M413 727l101 156h94l-134 -156h-61zM257 727l96 156h92l-127 -156h-61zM48 340q0 159 81.5 253t220.5 94q142 0 222.5 -93.5t80.5 -253.5q0 -159 -81.5 -253.5t-220.5 -94.5q-137 0 -220 95t-83 253zM133 340q0 -125 59.5 -198t158.5 -73q103 0 159.5 72t56.5 199
t-57 199t-160 72q-102 0 -159.5 -72.5t-57.5 -198.5z" />
    <glyph glyph-name="ohungarumlaut" unicode="&#x151;" horiz-adv-x="562" 
d="M349 560l101 156h94l-134 -156h-61zM193 560l96 156h92l-127 -156h-61zM279 -9q-109 0 -172.5 73.5t-63.5 185.5q0 113 65.5 188.5t170.5 75.5q115 0 177.5 -74t62.5 -188q0 -113 -64 -187t-176 -74zM279 444q-72 0 -113 -56t-41 -137q0 -79 42 -134.5t112 -55.5
q76 0 117 54.5t41 135.5q0 84 -39 138.5t-119 54.5z" />
    <glyph glyph-name="OE" unicode="&#x152;" horiz-adv-x="983" 
d="M346 69q102 0 157.5 72t55.5 199t-55.5 199t-158.5 72q-101 0 -156.5 -72t-55.5 -199q0 -126 57.5 -198.5t155.5 -72.5zM638 71h297v-71h-376v88q-79 -96 -213 -96q-136 0 -217 94.5t-81 253.5t79.5 253t217.5 94q136 0 214 -95v82h371v-71h-292v-231h258v-71h-258v-230z
" />
    <glyph glyph-name="oe" unicode="&#x153;" horiz-adv-x="892" 
d="M771 286v22q-1 66 -35 101t-90 35t-97 -40t-49 -118h271zM272 61q74 0 110.5 53.5t36.5 136.5q0 193 -148 193q-72 0 -109 -55t-37 -138q0 -80 38.5 -135t108.5 -55zM814 100v-74q-59 -31 -142 -31q-139 0 -210 104q-59 -108 -191 -108q-108 0 -168 73t-60 186
q0 114 62 189t166 75q130 0 189 -102q63 101 186 101q98 0 151 -61.5t53 -176.5q0 -28 -5 -55h-345q9 -75 58 -115t122 -40q83 0 134 35z" />
    <glyph glyph-name="Racute" unicode="&#x154;" horiz-adv-x="548" 
d="M429 883l-124 -156h-69l99 156h94zM158 604v-269h102q69 0 105.5 37.5t36.5 96.5q0 135 -151 135h-93zM525 0h-97l-165 266h-8h-97v-266h-81v674h169q117 0 177.5 -55t60.5 -152q-2 -70 -37 -119t-99 -69z" />
    <glyph glyph-name="racute" unicode="&#x155;" horiz-adv-x="326" 
d="M361 716l-124 -156h-69l99 156h94zM151 507v-89q40 94 138 94q18 0 28 -2v-78q-21 7 -43 7q-53 0 -88 -49t-35 -113v-277h-79l1 507h78z" />
    <glyph glyph-name="uni0156" unicode="&#x156;" horiz-adv-x="548" 
d="M157 -243l85 192h91l-111 -192h-65zM158 604v-269h102q69 0 105.5 37.5t36.5 96.5q0 135 -151 135h-93zM348 279l177 -279h-97l-165 266h-8h-97v-266h-81v674h169q117 0 177.5 -55t60.5 -152q-2 -70 -37 -119t-99 -69z" />
    <glyph glyph-name="uni0157" unicode="&#x157;" horiz-adv-x="326" 
d="M-20 -243l84 192h92l-111 -192h-65zM151 507v-89q40 94 138 94q18 0 28 -2v-78q-21 7 -43 7q-53 0 -88 -49t-35 -113v-277h-79l1 507h78z" />
    <glyph glyph-name="Rcaron" unicode="&#x158;" horiz-adv-x="548" 
d="M316 726h-76l-127 156h80l86 -105l84 105h80zM158 604v-269h102q69 0 105.5 37.5t36.5 96.5q0 135 -151 135h-93zM525 0h-97l-165 266h-8h-97v-266h-81v674h169q117 0 177.5 -55t60.5 -152q-2 -70 -37 -119t-99 -69z" />
    <glyph glyph-name="rcaron" unicode="&#x159;" horiz-adv-x="326" 
d="M240 559h-76l-127 156h80l86 -105l84 105h80zM151 507v-89q40 94 138 94q18 0 28 -2v-78q-21 7 -43 7q-53 0 -88 -49t-35 -113v-277h-79l1 507h78z" />
    <glyph glyph-name="Sacute" unicode="&#x15a;" horiz-adv-x="524" 
d="M247 726l99 156h94l-124 -156h-69zM430 649v-85q-61 40 -146 40q-61 0 -97 -28.5t-36 -74.5q0 -24 9.5 -43t33.5 -35.5t41 -25t53 -24.5q34 -15 52 -23.5t46.5 -27t43 -36t26 -46t11.5 -61.5q0 -89 -61 -137.5t-157 -48.5q-106 0 -180 43v87q73 -55 178 -55q63 0 99 28
t36 81q0 22 -8.5 39.5t-28 32t-37 24t-47.5 23.5q-6 3 -18 8q-43 19 -65.5 31t-53 35.5t-44.5 54.5t-14 72q0 86 61.5 134.5t154.5 48.5q87 0 148 -31z" />
    <glyph glyph-name="sacute" unicode="&#x15b;" horiz-adv-x="412" 
d="M188 560l99 156h94l-124 -156h-69zM349 490v-75q-46 28 -126 28q-40 0 -63.5 -18.5t-23.5 -47.5q0 -18 7 -31.5t27.5 -26.5t30 -17.5t41.5 -18.5q64 -26 100 -59t36 -89q0 -65 -45.5 -103t-124.5 -38q-92 0 -149 31v77q67 -40 144 -40q46 0 70 18t24 49q0 36 -26.5 56
t-88.5 45q-57 22 -91.5 55t-34.5 89q0 63 47.5 100.5t118.5 37.5q79 0 127 -22z" />
    <glyph glyph-name="uni015E" unicode="&#x15e;" horiz-adv-x="524" 
d="M430 649v-85q-61 40 -146 40q-61 0 -97 -28.5t-36 -74.5q0 -24 9.5 -43t33.5 -35.5t41 -25t53 -24.5q34 -15 52 -23.5t46.5 -27t43 -36t26 -46t11.5 -61.5q0 -89 -61 -137.5t-157 -48.5q-106 0 -180 43v87q73 -55 178 -55q63 0 99 28t36 81q0 22 -8.5 39.5t-28 32t-37 24
t-47.5 23.5q-6 3 -18 8q-43 19 -65.5 31t-53 35.5t-44.5 54.5t-14 72q0 86 61.5 134.5t154.5 48.5q87 0 148 -31zM313 -122q0 -54 -38.5 -91t-111.5 -39v58q84 6 84 71q0 34 -23 72h71q18 -25 18 -71z" />
    <glyph glyph-name="uni015F" unicode="&#x15f;" horiz-adv-x="412" 
d="M349 490v-75q-46 28 -126 28q-40 0 -63.5 -18.5t-23.5 -47.5q0 -18 7 -31.5t27.5 -26.5t30 -17.5t41.5 -18.5q64 -26 100 -59t36 -89q0 -65 -45.5 -103t-124.5 -38q-92 0 -149 31v77q67 -40 144 -40q46 0 70 18t24 49q0 36 -26.5 56t-88.5 45q-57 22 -91.5 55t-34.5 89
q0 63 47.5 100.5t118.5 37.5q79 0 127 -22zM277 -122q0 -54 -38.5 -91t-111.5 -39v58q84 6 84 71q0 34 -23 72h71q18 -25 18 -71z" />
    <glyph glyph-name="Scaron" unicode="&#x160;" horiz-adv-x="524" 
d="M430 649v-85q-61 40 -146 40q-61 0 -97 -28.5t-36 -74.5q0 -24 9.5 -43t33.5 -35.5t41 -25t53 -24.5q34 -15 52 -23.5t46.5 -27t43 -36t26 -46t11.5 -61.5q0 -89 -61 -137.5t-157 -48.5q-106 0 -180 43v87q73 -55 178 -55q63 0 99 28t36 81q0 22 -8.5 39.5t-28 32t-37 24
t-47.5 23.5q-6 3 -18 8q-43 19 -65.5 31t-53 35.5t-44.5 54.5t-14 72q0 86 61.5 134.5t154.5 48.5q87 0 148 -31zM301 726h-76l-127 156h80l86 -105l84 105h80z" />
    <glyph glyph-name="scaron" unicode="&#x161;" horiz-adv-x="412" 
d="M349 490v-75q-46 28 -126 28q-40 0 -63.5 -18.5t-23.5 -47.5q0 -18 7 -31.5t27.5 -26.5t30 -17.5t41.5 -18.5q64 -26 100 -59t36 -89q0 -65 -45.5 -103t-124.5 -38q-92 0 -149 31v77q67 -40 144 -40q46 0 70 18t24 49q0 36 -26.5 56t-88.5 45q-57 22 -91.5 55t-34.5 89
q0 63 47.5 100.5t118.5 37.5q79 0 127 -22zM269 560h-76l-127 156h80l86 -105l84 105h80z" />
    <glyph glyph-name="uni0162" unicode="&#x162;" horiz-adv-x="482" 
d="M105 -243l84 192h92l-111 -192h-65zM463 674v-71h-182v-603h-81v603h-182v71h445z" />
    <glyph glyph-name="uni0163" unicode="&#x163;" horiz-adv-x="369" 
d="M57 -243l84 192h92l-112 -192h-64zM182 443v-297q0 -81 76 -81q39 0 69 23v-75q-33 -18 -74 -18q-150 0 -150 153v295h-81v64h81v126h79v-126h140v-64h-140z" />
    <glyph glyph-name="Tcaron" unicode="&#x164;" horiz-adv-x="482" 
d="M279 727h-76l-127 156h80l86 -105l84 105h80zM463 674v-71h-182v-603h-81v603h-182v71h445z" />
    <glyph glyph-name="tcaron" unicode="&#x165;" horiz-adv-x="369" 
d="M417 760l-111 -193h-65l85 193h91zM182 443v-297q0 -81 76 -81q39 0 69 23v-75q-33 -18 -74 -18q-150 0 -150 153v295h-81v64h81v126h79v-126h140v-64h-140z" />
    <glyph glyph-name="Umacron" unicode="&#x16a;" horiz-adv-x="645" 
d="M488 254v420h81v-418q0 -130 -65.5 -197t-182.5 -67q-115 0 -180 65.5t-65 190.5v426h81v-425q0 -93 44.5 -137t119.5 -44q167 0 167 186zM467 777h-282v56h282v-56z" />
    <glyph glyph-name="umacron" unicode="&#x16b;" horiz-adv-x="540" 
d="M408 666v-56h-282v56h282zM388 507h79v-507h-79v88q-40 -94 -159 -94q-75 0 -118.5 44.5t-43.5 119.5v349h79v-329q0 -55 28 -84t76 -29q63 0 100.5 44t37.5 119v279z" />
    <glyph glyph-name="Uring" unicode="&#x16e;" horiz-adv-x="645" 
d="M219 822q0 44 31 75.5t75 31.5t75 -31.5t31 -75.5t-31 -75t-75 -31t-75 31t-31 75zM272 823q0 -22 15.5 -38t37.5 -16t38 16t16 38q0 23 -15.5 38.5t-38.5 15.5q-22 0 -37.5 -15.5t-15.5 -38.5zM488 254v420h81v-418q0 -130 -65.5 -197t-182.5 -67q-115 0 -180 65.5
t-65 190.5v426h81v-425q0 -93 44.5 -137t119.5 -44q167 0 167 186z" />
    <glyph glyph-name="uring" unicode="&#x16f;" horiz-adv-x="540" 
d="M275 711q-22 0 -37.5 -15.5t-15.5 -38.5q0 -22 15.5 -38t37.5 -16t38 16t16 38q0 23 -15.5 38.5t-38.5 15.5zM275 550q-44 0 -75 31t-31 75t31 75.5t75 31.5t75 -31.5t31 -75.5t-31 -75t-75 -31zM388 507h79v-507h-79v88q-40 -94 -159 -94q-75 0 -118.5 44.5t-43.5 119.5
v349h79v-329q0 -55 28 -84t76 -29q63 0 100.5 44t37.5 119v279z" />
    <glyph glyph-name="Uhungarumlaut" unicode="&#x170;" horiz-adv-x="645" 
d="M488 254v420h81v-418q0 -130 -65.5 -197t-182.5 -67q-115 0 -180 65.5t-65 190.5v426h81v-425q0 -93 44.5 -137t119.5 -44q167 0 167 186zM367 727l101 156h94l-134 -156h-61zM211 727l96 156h92l-127 -156h-61z" />
    <glyph glyph-name="uhungarumlaut" unicode="&#x171;" horiz-adv-x="540" 
d="M379 560h-61l101 156h94zM350 716l-127 -156h-61l96 156h92zM388 228v279h79v-507h-79v88q-40 -94 -159 -94q-75 0 -118.5 44.5t-43.5 119.5v349h79v-329q0 -55 28 -84t76 -29q63 0 100.5 44t37.5 119z" />
    <glyph glyph-name="Uogonek" unicode="&#x172;" horiz-adv-x="645" 
d="M488 674h81v-418q0 -200 -150 -249q-112 -56 -112 -125q0 -29 17.5 -44t47.5 -15q39 0 68 22v-61q-32 -19 -79 -19q-58 0 -90 31t-32 79q0 63 60 118q-105 6 -164 71t-59 184v426h81v-425q0 -93 44.5 -137t119.5 -44q167 0 167 186v420z" />
    <glyph glyph-name="uogonek" unicode="&#x173;" horiz-adv-x="540" 
d="M467 507v-507q-113 -56 -113 -125q0 -29 17.5 -44t47.5 -15q39 0 68 22v-61q-32 -19 -79 -19q-58 0 -90 31t-32 79q0 45 28.5 83.5t73.5 64.5v72q-40 -94 -159 -94q-75 0 -118.5 44.5t-43.5 119.5v349h79v-329q0 -55 28 -84t76 -29q63 0 100.5 44t37.5 119v279h79z" />
    <glyph glyph-name="Ydieresis" unicode="&#x178;" horiz-adv-x="593" 
d="M398 753q-22 0 -36.5 15t-14.5 37t14.5 36.5t36.5 14.5t37 -14.5t15 -36.5t-15 -37t-37 -15zM197 753q-22 0 -37 15t-15 37t15 36.5t37 14.5t36.5 -14.5t14.5 -36.5t-14.5 -37t-36.5 -15zM567 674l-231 -423v-251h-81v250l-229 424h94l51 -99q52 -100 83 -163t36 -76
l5 -12q9 25 127 251l51 99h94z" />
    <glyph glyph-name="Zacute" unicode="&#x179;" horiz-adv-x="569" 
d="M263 727l99 156h94l-124 -156h-69zM502 674v-66l-356 -539h371v-69h-465v67l356 538h-351v69h445z" />
    <glyph glyph-name="zacute" unicode="&#x17a;" horiz-adv-x="453" 
d="M200 560l99 156h94l-124 -156h-69zM395 507v-58l-260 -378h274v-71h-365v62l257 375h-247v70h341z" />
    <glyph glyph-name="Zdotaccent" unicode="&#x17b;" horiz-adv-x="569" 
d="M502 674v-66l-356 -539h371v-69h-465v67l356 538h-351v69h445zM240 808q0 22 15 36.5t37 14.5t36.5 -14.5t14.5 -36.5t-14.5 -37t-36.5 -15t-37 15t-15 37z" />
    <glyph glyph-name="zdotaccent" unicode="&#x17c;" horiz-adv-x="453" 
d="M395 507v-58l-260 -378h274v-71h-365v62l257 375h-247v70h341zM191 638q0 22 15 36.5t37 14.5t36.5 -14.5t14.5 -36.5t-14.5 -37t-36.5 -15t-37 15t-15 37z" />
    <glyph glyph-name="Zcaron" unicode="&#x17d;" horiz-adv-x="569" 
d="M502 674v-66l-356 -539h371v-69h-465v67l356 538h-351v69h445zM321 727h-76l-127 156h80l86 -105l84 105h80z" />
    <glyph glyph-name="zcaron" unicode="&#x17e;" horiz-adv-x="453" 
d="M395 507v-58l-260 -378h274v-71h-365v62l257 375h-247v70h341zM280 560h-76l-127 156h80l86 -105l84 105h80z" />
    <glyph glyph-name="florin" unicode="&#x192;" horiz-adv-x="392" 
d="M162 371l23 133q15 87 53.5 132t108.5 45q41 0 66 -9v-72q-27 10 -57 10q-73 0 -93 -114l-22 -125h99v-64h-110l-67 -387q-15 -87 -53 -132t-108 -45q-41 0 -68 10v72q27 -11 60 -11q71 0 92 114l65 379h-97v64h108z" />
    <glyph glyph-name="uni0218" unicode="&#x218;" horiz-adv-x="524" 
d="M430 649v-85q-61 40 -146 40q-61 0 -97 -28.5t-36 -74.5q0 -24 9.5 -43t33.5 -35.5t41 -25t53 -24.5q34 -15 52 -23.5t46.5 -27t43 -36t26 -46t11.5 -61.5q0 -89 -61 -137.5t-157 -48.5q-106 0 -180 43v87q73 -55 178 -55q63 0 99 28t36 81q0 22 -8.5 39.5t-28 32t-37 24
t-47.5 23.5q-6 3 -18 8q-43 19 -65.5 31t-53 35.5t-44.5 54.5t-14 72q0 86 61.5 134.5t154.5 48.5q87 0 148 -31zM136 -243l84 192h92l-111 -192h-65z" />
    <glyph glyph-name="uni0219" unicode="&#x219;" horiz-adv-x="412" 
d="M87 -243l84 192h92l-111 -192h-65zM349 490v-75q-46 28 -126 28q-40 0 -63.5 -18.5t-23.5 -47.5q0 -18 7 -31.5t27.5 -26.5t30 -17.5t41.5 -18.5q64 -26 100 -59t36 -89q0 -65 -45.5 -103t-124.5 -38q-92 0 -149 31v77q67 -40 144 -40q46 0 70 18t24 49q0 36 -26.5 56
t-88.5 45q-57 22 -91.5 55t-34.5 89q0 63 47.5 100.5t118.5 37.5q79 0 127 -22z" />
    <glyph glyph-name="uni021A" unicode="&#x21a;" horiz-adv-x="482" 
d="M108 -243l84 192h92l-111 -192h-65zM18 674h445v-71h-182v-603h-81v603h-182v71z" />
    <glyph glyph-name="uni021B" unicode="&#x21b;" horiz-adv-x="369" 
d="M112 -243l84 192h92l-111 -192h-65zM182 443v-297q0 -81 76 -81q39 0 69 23v-75q-33 -18 -74 -18q-150 0 -150 153v295h-81v64h81v126h79v-126h140v-64h-140z" />
    <glyph glyph-name="apostrophemod" unicode="&#x2bc;" horiz-adv-x="181" 
d="M12 471l84 224h98l-120 -224h-62z" />
    <glyph glyph-name="circumflex" unicode="&#x2c6;" horiz-adv-x="421" 
d="M172 798h76l127 -156h-80l-85 105l-85 -105h-80z" />
    <glyph glyph-name="caron" unicode="&#x2c7;" horiz-adv-x="421" 
d="M248 642h-76l-127 156h80l86 -105l84 105h80z" />
    <glyph glyph-name="uni02C9" unicode="&#x2c9;" horiz-adv-x="421" 
d="M351 693h-282v56h282v-56z" />
    <glyph glyph-name="breve" unicode="&#x2d8;" horiz-adv-x="421" 
d="M46 798h65q0 -46 24 -74t76 -28q51 0 75 28t24 74h65q0 -73 -41 -116t-123 -43t-123.5 43t-41.5 116z" />
    <glyph glyph-name="dotaccent" unicode="&#x2d9;" horiz-adv-x="421" 
d="M159 724q0 22 15 36.5t37 14.5t36.5 -14.5t14.5 -36.5t-14.5 -37t-36.5 -15t-37 15t-15 37z" />
    <glyph glyph-name="ring" unicode="&#x2da;" horiz-adv-x="421" 
d="M104 720q0 44 31 75.5t75 31.5t75 -31.5t31 -75.5t-31 -75t-75 -31t-75 31t-31 75zM157 721q0 -22 15.5 -38t37.5 -16t38 16t16 38q0 23 -16 38.5t-38 15.5t-37.5 -15.5t-15.5 -38.5z" />
    <glyph glyph-name="ogonek" unicode="&#x2db;" horiz-adv-x="421" 
d="M311 -212q-32 -19 -79 -19q-58 0 -90 31t-32 79q0 58 45.5 104t104.5 66l31 -38q-113 -56 -113 -125q0 -29 17.5 -44t47.5 -15q39 0 68 22v-61z" />
    <glyph glyph-name="tilde" unicode="&#x2dc;" horiz-adv-x="421" 
d="M339 761l49 -34q-32 -69 -99 -69q-27 0 -69.5 22t-58.5 22q-41 0 -68 -48l-43 37q14 30 41.5 50.5t59.5 20.5q30 0 73 -22t61 -22q34 0 54 43z" />
    <glyph glyph-name="hungarumlaut" unicode="&#x2dd;" horiz-adv-x="421" 
d="M191 642l101 156h94l-134 -156h-61zM35 642l96 156h92l-127 -156h-61z" />
    <glyph glyph-name="pi" unicode="&#x3c0;" horiz-adv-x="582" 
d="M564 507v-64h-95v-443h-79v443h-191v-278q0 -91 -40.5 -128t-117.5 -37v69q44 0 61.5 19t17.5 74v281h-96v64h540z" />
    <glyph glyph-name="dvCandrabindu" unicode="&#x901;" 
d="M-136 739q-77 0 -128.5 40t-51.5 117h78q0 -41 27 -68t75 -27t75.5 27t27.5 68h77q0 -75 -52.5 -116t-127.5 -41zM-186 951q0 22 14.5 37t36.5 15t37 -15t15 -37t-15 -36.5t-37 -14.5q-23 0 -37 14t-14 37z" />
    <glyph glyph-name="dvAnusvara" unicode="&#x902;" 
d="M-189 783q0 23 15.5 39t38.5 16t39 -16t16 -39t-16 -38t-39 -15t-38.5 15t-15.5 38z" />
    <glyph glyph-name="dvVisarga" unicode="&#x903;" horiz-adv-x="298" 
d="M60 484q0 23 15 38.5t38 15.5t39 -15.5t16 -38.5t-16 -38.5t-39 -15.5t-38 15.5t-15 38.5zM60 156q0 23 15 39t38 16t39 -16t16 -39t-16 -38t-39 -15t-38 15t-15 38z" />
    <glyph glyph-name="dvA" unicode="&#x905;" horiz-adv-x="659" 
d="M681 642v-67h-116v-575h-78v260h-138q1 -7 1 -22q0 -74 -52.5 -120t-145.5 -46q-65 0 -122 24v74q62 -31 121 -31q48 0 84.5 25.5t36.5 80.5q0 43 -31 67t-94 24h-34v70h32q53 0 80 23t27 62q0 82 -94 82q-53 0 -97 -24v74q43 18 98 18q82 0 126.5 -38t44.5 -103
q0 -50 -25.5 -83t-66.5 -44q51 -7 82 -45h167v247h-91v67h285z" />
    <glyph glyph-name="dvAA" unicode="&#x906;" horiz-adv-x="924" 
d="M946 642v-67h-116v-575h-78v575h-187v-575h-78v260h-138q1 -7 1 -22q0 -74 -52.5 -120t-145.5 -46q-65 0 -122 24v74q62 -31 121 -31q48 0 84.5 25.5t36.5 80.5q0 43 -31 67t-94 24h-34v70h32q53 0 80 23t27 62q0 82 -94 82q-53 0 -97 -24v74q43 18 98 18q82 0 126.5 -38
t44.5 -103q0 -50 -25.5 -83t-66.5 -44q51 -7 82 -45h167v247h-91v67h550z" />
    <glyph glyph-name="dvI" unicode="&#x907;" horiz-adv-x="481" 
d="M395 426h-160q-42 0 -66 -16t-24 -46t29 -44.5t96 -19.5q181 -11 181 -142q0 -64 -47.5 -108t-120.5 -44q-85 0 -140 49v-115h-77v228h71q16 -42 55.5 -69.5t87.5 -27.5q41 0 67 24t26 62q0 70 -116 77q-191 9 -191 128q0 61 46 96t121 35h83v82h-338v67h525v-67h-108
v-149z" />
    <glyph glyph-name="dvII" unicode="&#x908;" horiz-adv-x="481" 
d="M393 426h-158q-42 0 -66 -16t-24 -46t29 -44.5t96 -19.5q181 -11 181 -142q0 -64 -47.5 -108t-120.5 -44q-85 0 -140 49v-115h-77v228h71q16 -42 55.5 -69.5t87.5 -27.5q41 0 67 24t26 62q0 70 -116 77q-191 9 -191 128q0 61 46 96t121 35h81v82h-336v67h315
q-33 39 -33 95q0 58 39.5 98t105.5 40q41 0 71 -14v-71q-32 15 -67 15q-33 0 -51.5 -20.5t-18.5 -53.5q0 -47 38 -89h126v-67h-110v-149z" />
    <glyph glyph-name="dvU" unicode="&#x909;" horiz-adv-x="428" 
d="M451 642v-67h-130q35 -38 35 -93q0 -107 -104 -136q55 -5 96.5 -45t41.5 -105q0 -80 -58 -128.5t-164 -48.5q-69 0 -138 26v72q64 -31 132 -31t108.5 28.5t40.5 86.5q0 52 -42 81t-112 29h-46v68h46q120 0 120 103q0 55 -42 93h-257v67h473z" />
    <glyph glyph-name="dvUU" unicode="&#x90a;" horiz-adv-x="693" 
d="M714 642v-67h-393q35 -38 35 -93q0 -107 -104 -136q58 -5 96 -45q14 45 53.5 74t87.5 29q85 0 130.5 -49t45.5 -132q0 -85 -48 -139t-129 -54q-14 0 -23 3v65q5 -2 17 -2q51 0 78 32.5t27 93.5q0 52 -24.5 84t-72.5 32q-47 0 -73.5 -40t-26.5 -97v-5q0 -80 -58 -128.5
t-164 -48.5q-69 0 -138 26v72q64 -31 132 -31t108.5 28.5t40.5 86.5q0 52 -42 81t-112 29h-46v68h46q120 0 120 103q0 55 -42 93h-257v67h736z" />
    <glyph glyph-name="dvvR" unicode="&#x90b;" horiz-adv-x="817" 
d="M442 575v-228l140 81v57h72v-91q0 -84 88 -84h9v-65h-37q-46 0 -71.5 -20.5t-25.5 -55.5q0 -33 23.5 -49.5t58.5 -16.5q49 0 92 23v-67q-41 -21 -98 -21q-64 0 -108.5 33t-44.5 95q0 43 24.5 75.5t68.5 45.5q-37 20 -47 68l-144 -84v-271h-79v231l-312 -188v81l224 133
q-16 61 -48 95.5t-93 34.5q-49 0 -95 -22v75q43 20 99 20q71 0 123.5 -40.5t76.5 -124.5l25 15v265h-385v67h862v-67h-398z" />
    <glyph glyph-name="dvvL" unicode="&#x90c;" horiz-adv-x="761" 
d="M665 575v-408q-58 -1 -86 -26t-28 -62q0 -31 24.5 -51t69.5 -20q44 0 86 16v-65q-42 -14 -82 -14q-77 0 -126 35.5t-49 101.5q0 48 29.5 82.5t82.5 47.5v180q-32 17 -69 17q-108 0 -108 -127v-72h-78v74q0 119 -88 119q-44 0 -73 -36.5t-29 -104.5q0 -85 44 -140.5
t129 -55.5q29 0 47 7v-66q-26 -7 -58 -7q-108 0 -174 74.5t-66 188.5q0 91 47 148.5t125 57.5q55 0 90.5 -25t45.5 -69q23 98 140 98q38 0 75 -14v116h-608v67h805v-67h-118z" />
    <glyph glyph-name="dvEcandra" unicode="&#x90d;" horiz-adv-x="555" 
d="M395 896h77q0 -75 -51.5 -116t-126.5 -41q-77 0 -127.5 40t-50.5 117h78q0 -42 26 -68.5t74 -26.5t74.5 26.5t26.5 68.5zM577 642v-67h-88v-146q0 -70 -43 -112t-121 -42q-25 0 -45 6v65q15 -6 39 -6q92 0 92 93v142h-248v-316q0 -159 174 -159q80 0 141 32v-72
q-62 -26 -147 -26q-112 0 -179 54.5t-67 169.5v317h-107v67h599z" />
    <glyph glyph-name="dvE" unicode="&#x90f;" horiz-adv-x="555" 
d="M577 642v-67h-88v-146q0 -70 -43 -112t-121 -42q-25 0 -45 6v65q15 -6 39 -6q92 0 92 93v142h-248v-316q0 -159 174 -159q80 0 141 32v-72q-62 -26 -147 -26q-112 0 -179 54.5t-67 169.5v317h-107v67h599z" />
    <glyph glyph-name="dvAI" unicode="&#x910;" horiz-adv-x="555" 
d="M577 642v-67h-88v-146q0 -70 -43 -112t-121 -42q-25 0 -45 6v65q15 -6 39 -6q92 0 92 93v142h-248v-316q0 -159 174 -159q80 0 141 32v-72q-62 -26 -147 -26q-112 0 -179 54.5t-67 169.5v317h-107v67h421l-82 125q-34 52 -91 52q-20 0 -50 -6v68q36 6 54 6q51 0 87 -21.5
t66 -68.5l102 -155h92z" />
    <glyph glyph-name="dvOcandra" unicode="&#x911;" horiz-adv-x="924" 
d="M770 896h77q0 -75 -51.5 -116t-126.5 -41q-77 0 -127.5 40t-50.5 117h78q0 -42 26 -68.5t74 -26.5t74.5 27t26.5 68zM946 642v-67h-116v-575h-78v575h-187v-575h-78v260h-138q1 -7 1 -22q0 -74 -52.5 -120t-145.5 -46q-65 0 -122 24v74q62 -31 121 -31q48 0 84.5 25.5
t36.5 80.5q0 43 -31 67t-94 24h-34v70h32q53 0 80 23t27 62q0 82 -94 82q-53 0 -97 -24v74q43 18 98 18q82 0 126.5 -38t44.5 -103q0 -50 -25.5 -83t-66.5 -44q51 -7 82 -45h167v247h-91v67h550z" />
    <glyph glyph-name="dvO" unicode="&#x913;" horiz-adv-x="925" 
d="M829 642h110v-67h-116v-575h-78v575h-180v-575h-78v260h-138q1 -7 1 -22q0 -74 -52.5 -120t-145.5 -46q-65 0 -122 24v74q62 -31 121 -31q48 0 84.5 25.5t36.5 80.5q0 43 -31 67t-94 24h-34v70h32q53 0 80 23t27 62q0 82 -94 82q-53 0 -97 -24v74q43 18 98 18
q82 0 126.5 -38t44.5 -103q0 -50 -25.5 -83t-66.5 -44q51 -7 82 -45h167v247h-91v67h347l-82 125q-34 52 -91 52q-20 0 -50 -6v68q36 6 54 6q51 0 87 -21.5t66 -68.5z" />
    <glyph glyph-name="dvAU" unicode="&#x914;" horiz-adv-x="925" 
d="M837 642h110v-67h-116v-575h-78v575h-188v-575h-78v260h-138q1 -7 1 -22q0 -74 -52.5 -120t-145.5 -46q-65 0 -122 24v74q62 -31 121 -31q48 0 84.5 25.5t36.5 80.5q0 43 -31 67t-94 24h-34v70h32q53 0 80 23t27 62q0 82 -94 82q-53 0 -97 -24v74q43 18 98 18
q82 0 126.5 -38t44.5 -103q0 -50 -25.5 -83t-66.5 -44q51 -7 82 -45h167v247h-91v67h332q-50 38 -87.5 55.5t-78.5 17.5q-31 0 -58 -9v70q24 8 54 8q42 0 75 -16.5t77 -54.5l62 -55l-92 118q-44 56 -118 56q-30 0 -58 -7v68q18 6 61 6q107 0 168 -95z" />
    <glyph glyph-name="dvKA" unicode="&#x915;" horiz-adv-x="771" 
d="M793 575h-368v-143q46 48 117 48q82 0 133 -50t51 -131q0 -87 -57 -139t-142 -52q-11 0 -23 2v67q10 -2 20 -2q53 0 88 33t35 91q0 51 -31.5 83.5t-82.5 32.5q-44 0 -76 -30.5t-32 -76.5v-308h-79v144q-44 -46 -116 -46q-82 0 -133 49.5t-51 130.5q0 87 57 139.5
t141 52.5q16 0 23 -3v-66q-5 1 -19 1q-54 0 -89 -33t-35 -90q0 -51 32 -84t83 -33q44 0 75.5 31t31.5 77v305h-368v67h815v-67z" />
    <glyph glyph-name="dvKHA" unicode="&#x916;" horiz-adv-x="779" 
d="M801 642v-67h-115v-575h-79v180q-46 -47 -120 -47q-69 0 -118 46t-49 119q0 77 49 122.5t120 45.5q25 0 48 -5v-65q-16 5 -38 5q-43 0 -72.5 -29t-29.5 -75t28.5 -73.5t74.5 -27.5q44 0 75.5 30.5t31.5 79.5v269h-309v-142q0 -71 -44.5 -111t-118.5 -43l-12 -1l220 -278
h-97l-215 279v65h67q122 0 122 97v134h-242v67h823z" />
    <glyph glyph-name="dvGA" unicode="&#x917;" horiz-adv-x="574" 
d="M-22 642h618v-67h-116v-575h-77v575h-175v-234q0 -63 -32 -97.5t-93 -34.5q-41 0 -73 13v69q30 -14 61 -14q60 0 60 67v231h-173v67z" />
    <glyph glyph-name="dvGHA" unicode="&#x918;" horiz-adv-x="642" 
d="M471 330v245h-260q-56 -30 -56 -89q0 -79 126 -79h48v-68h-59q-56 0 -88.5 -24.5t-32.5 -68.5q0 -43 35.5 -65t85.5 -22q84 0 142.5 51t58.5 120zM664 642v-67h-116v-575h-77v186q-30 -40 -85.5 -66.5t-121.5 -26.5q-87 0 -140.5 41.5t-53.5 111.5q0 52 31 83.5t86 42.5
q-45 5 -78 33.5t-33 78.5q0 55 42 91h-140v67h686z" />
    <glyph glyph-name="dvNGA" unicode="&#x919;" horiz-adv-x="574" 
d="M507 399q23 0 38.5 -15.5t15.5 -37.5t-15.5 -37t-38.5 -15t-37.5 15t-14.5 37q0 23 15 38t37 15zM-22 642h619v-67h-198v-151h-174q-36 0 -60 -15t-24 -48q0 -34 30 -49.5t105 -19.5q180 -5 180 -138q-1 -69 -55.5 -112t-147.5 -43q-107 0 -190 44v77q89 -55 190 -55
q57 0 90 23t33 65q0 37 -30 54t-100 20q-184 8 -184 132q0 64 45 98t115 34h99v84h-343v67z" />
    <glyph glyph-name="dvCA" unicode="&#x91a;" horiz-adv-x="634" 
d="M656 642v-67h-116v-575h-78v188q-24 -38 -70.5 -63t-112.5 -26q-81 0 -134 44t-53 119q0 87 78 125h-142v67h342v-67q-109 0 -154.5 -34.5t-45.5 -86.5q0 -49 32.5 -75.5t85.5 -26.5q81 0 127.5 49.5t46.5 113.5v248h-484v67h678z" />
    <glyph glyph-name="dvCHA" unicode="&#x91b;" horiz-adv-x="631" 
d="M427 481v94h-204q-62 -34 -62 -102q0 -42 29.5 -67t71.5 -25h30v-67h-38q-53 0 -81.5 -23.5t-28.5 -64.5q0 -48 43 -76t109 -28q89 0 145 49.5t56 136.5q0 51 -28.5 80.5t-83.5 29.5q-27 0 -43 -7v65q17 7 55 7q10 0 30 -2zM653 575h-153v-117q76 -43 76 -149
q0 -109 -79.5 -180.5t-200.5 -71.5q-102 0 -166.5 45t-64.5 123q0 53 31.5 87.5t81.5 39.5q-36 6 -65.5 38.5t-29.5 82.5q0 64 45 102h-150v67h675v-67z" />
    <glyph glyph-name="dvJA" unicode="&#x91c;" horiz-adv-x="650" 
d="M-22 642h694v-67h-116v-575h-78v384h-201q72 -43 72 -141q0 -81 -54.5 -130.5t-144.5 -49.5q-66 0 -120 22v72q54 -28 112 -28t93.5 31.5t35.5 87.5q0 67 -46.5 101.5t-128.5 34.5v67h382v124h-500v67z" />
    <glyph glyph-name="dvJHA" unicode="&#x91d;" horiz-adv-x="759" 
d="M282 316h304v259h-180v-141h-160q-92 0 -92 -60q0 -29 25.5 -40.5t88.5 -16.5zM781 642v-67h-116v-575h-79v252h-163q29 -35 29 -85q0 -66 -46.5 -109t-120.5 -43q-88 0 -144 50v-113h-76v226h70q17 -42 58 -70t88 -28q42 0 67.5 23t25.5 62q0 78 -118 86q-87 5 -134 31
t-47 90q0 61 45.5 95t120.5 34h86v74h-349v67h803z" />
    <glyph glyph-name="dvNYA" unicode="&#x91e;" horiz-adv-x="675" 
d="M697 642v-67h-116v-575h-79v258h-117q-7 -79 -64 -129t-147 -51q-80 0 -152 36v74q69 -42 146 -42q65 0 101 36.5t36 94.5q0 55 -32.5 89t-89.5 34q-45 0 -78 -14v67q32 13 79 13q82 0 133 -37t64 -104h121v250h-524v67h719z" />
    <glyph glyph-name="dvTTA" unicode="&#x91f;" horiz-adv-x="495" 
d="M315 88q79 0 142 38v-72q-62 -32 -145 -32q-114 0 -184.5 57.5t-70.5 158.5q0 97 69 158t178 62q16 0 24 -1v118h-350v67h539v-67h-111v-186q-32 5 -70 5q-89 0 -143.5 -40.5t-54.5 -116.5q0 -71 48.5 -110t128.5 -39z" />
    <glyph glyph-name="dvTTHA" unicode="&#x920;" horiz-adv-x="564" 
d="M429 259q0 62 -40 95t-107 33q-60 0 -103.5 -32t-43.5 -95q0 -60 40 -97t107 -37q66 0 106.5 37t40.5 96zM586 575h-244v-129q75 -14 121 -62.5t46 -124.5q0 -87 -62.5 -142t-164.5 -55q-101 0 -164 55t-63 143t61.5 137t147.5 54v124h-286v67h608v-67z" />
    <glyph glyph-name="dvDDA" unicode="&#x921;" horiz-adv-x="521" 
d="M399 424h-174q-36 0 -60 -15t-24 -48q0 -34 30 -49.5t105 -19.5q180 -5 180 -138q-1 -69 -55.5 -112t-147.5 -43q-107 0 -190 44v77q89 -55 190 -55q57 0 90 23t33 65q0 37 -30 54t-100 20q-184 8 -184 132q0 64 45 98t115 34h99v84h-343v67h565v-67h-144v-151z" />
    <glyph glyph-name="dvDDHA" unicode="&#x922;" horiz-adv-x="556" 
d="M266 212v65q42 21 94 21q67 0 104 -34.5t37 -88.5q0 -67 -55 -110.5t-146 -43.5q-106 0 -176 61.5t-70 161.5q0 96 69.5 160t184.5 65q22 0 45 -3v109h-375v67h600v-67h-146v-183q-62 10 -102 10q-91 0 -143.5 -44.5t-52.5 -114.5t46.5 -113.5t120.5 -43.5q53 0 88 23.5
t35 64.5q0 27 -20 44t-53 17q-47 0 -85 -23z" />
    <glyph glyph-name="dvNNA" unicode="&#x923;" horiz-adv-x="743" 
d="M331 348v227h-183v-227q0 -109 89 -109q94 0 94 109zM765 642v-67h-116v-575h-78v575h-162v-225q0 -86 -44.5 -131.5t-128.5 -45.5q-166 0 -166 177v225h-92v67h787z" />
    <glyph glyph-name="dvTA" unicode="&#x924;" horiz-adv-x="587" 
d="M610 642v-67h-116v-575h-78v384h-95q-177 0 -177 -156q0 -74 36.5 -117t107.5 -43q17 0 23 1v-67q-16 -2 -30 -2q-100 0 -158 64t-58 165q0 100 63 161.5t184 61.5h104v123h-438v67h632z" />
    <glyph glyph-name="dvTHA" unicode="&#x925;" horiz-adv-x="639" 
d="M361 507q0 -82 -62.5 -132.5t-178.5 -78.5q29 -121 161 -121q77 0 132 50t55 144v273h191v-67h-113v-575h-78v205q-19 -36 -71.5 -66.5t-119.5 -30.5q-97 0 -167.5 59t-81.5 175q132 28 194 66t62 98q0 34 -16.5 55t-49.5 21t-50 -19.5t-17 -49.5q0 -23 12 -56h-77
q-12 34 -12 64q0 52 39.5 89.5t104.5 37.5q67 0 105 -40.5t38 -100.5z" />
    <glyph glyph-name="dvDA" unicode="&#x926;" horiz-adv-x="550" 
d="M-22 642h594v-67h-120v-167h-176q-68 0 -107 -35t-39 -98q0 -65 35 -102t94 -37t94.5 33t37.5 85h75v-264h-78v133q-41 -52 -135 -52q-93 0 -150 58t-57 143q0 89 59 145.5t165 56.5h104v101h-396v67z" />
    <glyph glyph-name="dvDHA" unicode="&#x927;" horiz-adv-x="634" 
d="M656 642v-67h-115v-575h-78v157q-25 -39 -75.5 -66t-116.5 -27q-95 0 -151.5 45.5t-56.5 114.5q0 56 35 89.5t92 40.5q-56 6 -89 36t-33 84q0 69 62 101h-152v67h310v-67h-1q-66 0 -103 -28t-37 -72q0 -45 38 -66.5t98 -21.5h50v-67h-59q-61 0 -96 -25.5t-35 -70.5
q0 -41 35.5 -67t96.5 -26q84 0 136 51.5t52 115.5v344h193z" />
    <glyph glyph-name="dvNA" unicode="&#x928;" horiz-adv-x="490" 
d="M-22 642h534v-67h-115v-575h-79v329h-177q-18 0 -25 -9t-7 -30q0 -35 13 -74h-66q-28 56 -28 104q0 75 87 75h203v180h-340v67z" />
    <glyph glyph-name="dvPA" unicode="&#x92a;" horiz-adv-x="553" 
d="M381 382v193h-234v-201q0 -71 26 -102.5t80 -31.5q53 0 90.5 38.5t37.5 103.5zM575 642v-67h-115v-575h-79v238q-46 -61 -133 -62q-180 0 -180 199v200h-90v67h597z" />
    <glyph glyph-name="dvPHA" unicode="&#x92b;" horiz-adv-x="791" 
d="M381 382v193h-234v-201q0 -71 25.5 -100.5t80.5 -29.5q53 0 90.5 36.5t37.5 101.5zM813 575h-353v-138q45 47 118 47q81 0 131.5 -50t50.5 -130q0 -88 -57 -139.5t-141 -51.5q-18 0 -24 2v67q12 -2 20 -2q54 0 88.5 32.5t34.5 91.5q0 51 -31.5 83.5t-80.5 32.5
q-45 0 -77 -31.5t-32 -78.5v-310h-79v238q-46 -58 -133 -59q-90 0 -135 45t-45 147v204h-90v67h835v-67z" />
    <glyph glyph-name="dvBA" unicode="&#x92c;" horiz-adv-x="615" 
d="M372 173l-212 206q-29 -37 -29 -93q0 -62 39.5 -101.5t101.5 -39.5q60 0 100 28zM638 642v-67h-116v-575h-78v163q-27 -36 -74 -59t-105 -23q-87 0 -148.5 57.5t-61.5 148.5t61.5 149.5t157.5 58.5q40 0 83 -10v-69q-40 13 -78 13q-46 0 -78 -17l209 -205q34 43 34 99
v269h-466v67h660z" />
    <glyph glyph-name="dvBHA" unicode="&#x92d;" horiz-adv-x="555" 
d="M383 347v295h194v-67h-116v-575h-78v281h-196v-137h-70l-24 56q-27 60 -27 89q0 21 11.5 36t30.5 19v170q0 34 -10 49.5t-36 15.5q-32 0 -56 -13v65q30 15 70 15q111 0 111 -119v-180h196z" />
    <glyph glyph-name="dvMA" unicode="&#x92e;" horiz-adv-x="572" 
d="M-22 575v67h616v-67h-115v-575h-78v280h-210v-136h-68l-25 56q-27 64 -27 90q0 20 11.5 34t30.5 19v232h-135zM401 575h-210v-229h210v229z" />
    <glyph glyph-name="dvYA" unicode="&#x92f;" horiz-adv-x="625" 
d="M292 125q-93 0 -159.5 63.5t-81.5 178.5q80 12 121.5 44t41.5 75q0 52 -31 89h-205v67h669v-67h-115v-575h-78v194q-51 -69 -162 -69zM299 192q70 0 112.5 38.5t42.5 103.5v241h-187q25 -38 25 -93q0 -118 -148 -164q12 -55 54 -90.5t101 -35.5z" />
    <glyph glyph-name="dvRA" unicode="&#x930;" horiz-adv-x="376" 
d="M31 279v65h67q122 0 122 96v135h-242v67h420v-67h-100v-142q0 -71 -44 -111.5t-118 -42.5h-11l212 -279h-95z" />
    <glyph glyph-name="dvRxA" unicode="&#x931;" horiz-adv-x="376" 
d="M31 279v65h67q122 0 122 96v135h-242v67h420v-67h-100v-142q0 -71 -44 -111.5t-118 -42.5h-11l212 -279h-95zM-26 12q0 22 15 37.5t38 15.5q22 0 37.5 -15.5t15.5 -37.5t-15 -37t-38 -15t-38 14.5t-15 37.5z" />
    <glyph glyph-name="dvLA" unicode="&#x932;" horiz-adv-x="734" 
d="M756 642v-67h-116v-575h-79v396q-26 13 -54 13q-108 0 -108 -127v-72h-78v74q0 119 -87 119q-44 0 -72.5 -36.5t-28.5 -104.5q0 -85 44 -140.5t129 -55.5q17 0 27 2v-65q-18 -3 -38 -3q-108 0 -174 74.5t-66 188.5q0 91 47 148.5t125 57.5q54 0 89 -24.5t45 -69.5
q23 98 140 98q33 0 60 -11v113h-583v67h778z" />
    <glyph glyph-name="dvLLA" unicode="&#x933;" horiz-adv-x="798" 
d="M673 282q0 53 -32 85.5t-87 32.5q-23 0 -41.5 -8.5t-29.5 -18t-22.5 -31.5t-16 -34t-14 -42.5t-12.5 -39.5q58 -69 136 -69q54 0 86.5 34t32.5 91zM239 157q27 0 47 10t33 31.5t20 39.5t17 50.5t16 47.5q-55 64 -132 64q-53 0 -84 -35t-31 -90q0 -54 31 -86t83 -32z
M820 575h-221v-115q70 -12 111.5 -60.5t41.5 -118.5q0 -85 -56 -137.5t-139 -52.5q-106 0 -172 73q-49 -73 -147 -73q-85 0 -138.5 50.5t-53.5 134.5t54 136.5t136 52.5q103 0 169 -68q44 56 118 65v113h-545v67h842v-67z" />
    <glyph glyph-name="dvVA" unicode="&#x935;" horiz-adv-x="574" 
d="M596 642v-67h-116v-575h-78v166q-52 -75 -160 -75q-80 0 -137.5 51.5t-57.5 139.5q0 82 55.5 136.5t142.5 54.5q37 0 63 -8v-69q-25 9 -59 9q-53 0 -88 -33.5t-35 -88.5q0 -58 35.5 -93t88.5 -35q70 0 111 47t41 111v262h-424v67h618z" />
    <glyph glyph-name="dvSHA" unicode="&#x936;" horiz-adv-x="668" 
d="M163 442h-77q-13 27 -13 64q0 57 39 97t106 40q75 0 120 -50.5t45 -122.5q0 -101 -67.5 -157.5t-158.5 -56.5h-33l230 -256h-103l-221 253v70h99q83 0 129.5 38.5t46.5 106.5q0 54 -23.5 80.5t-63.5 26.5q-35 0 -52.5 -21.5t-17.5 -54.5q0 -31 15 -57zM495 642h195v-67
h-116v-575h-79v642z" />
    <glyph glyph-name="dvSSA" unicode="&#x937;" horiz-adv-x="580" 
d="M408 373v202h-248l244 -240q4 16 4 38zM153 511v-137q0 -70 33.5 -105t90.5 -35q70 0 106 54zM602 642v-67h-116v-575h-78v229q-49 -57 -137 -59q-90 0 -142.5 49.5t-52.5 151.5v204h-98v67h624z" />
    <glyph glyph-name="dvSA" unicode="&#x938;" horiz-adv-x="635" 
d="M243 333h221v242h-194v-143q0 -63 -27 -99zM657 642v-67h-115v-575h-78v265h-168q-111 0 -170 9l184 -274h-95l-187 282v62h66q57 0 77.5 22.5t20.5 71.5v137h-214v67h679z" />
    <glyph glyph-name="dvHA" unicode="&#x939;" horiz-adv-x="530" 
d="M440 418h-240q-56 0 -56 -45q0 -26 14 -46.5t33 -29.5q42 15 97 15q82 0 126 -39.5t44 -94.5q0 -33 -11 -56h-77q14 19 14 52q0 32 -24.5 52.5t-72.5 20.5q-66 0 -103 -29t-37 -70q0 -50 43 -81.5t131 -31.5q61 0 125 18v-67q-69 -17 -131 -17q-118 0 -182 54t-64 126
q0 71 63 118q-67 44 -67 116q0 48 34 74t88 26h176v92h-385v67h575v-67h-113v-157z" />
    <glyph glyph-name="dvNukta" unicode="&#x93c;" 
d="M-326 -128q0 22 15 37.5t37 15.5t38 -15.5t16 -37.5t-15.5 -37t-38.5 -15q-22 0 -37 15t-15 37z" />
    <glyph glyph-name="dvAvagraha" unicode="&#x93d;" horiz-adv-x="453" 
d="M227 -3q-121 0 -209 53v83q101 -66 211 -66q61 0 92.5 28.5t31.5 66.5q0 37 -34.5 73t-83.5 67t-97.5 63t-83 74t-34.5 87q0 54 34 85t94 31h257v-70h-248q-56 0 -56 -49q0 -27 34 -57.5t82.5 -61.5t97.5 -65.5t83 -79.5t34 -93q0 -69 -52 -119t-153 -50z" />
    <glyph glyph-name="dvmAA" unicode="&#x93e;" horiz-adv-x="266" 
d="M-22 575v67h310v-67h-116v-575h-78v575h-116z" />
    <glyph glyph-name="dvmI" unicode="&#x93f;" horiz-adv-x="265" 
d="M657 788v-75q-86 53 -192 83t-179 30q-55 0 -84.5 -29t-29.5 -80v-75h115v-67h-115v-575h-78v575h-116v67h116v76q0 81 50 130t139 49q174 0 374 -109z" />
    <glyph glyph-name="dvmII" unicode="&#x940;" horiz-adv-x="265" 
d="M171 642h116v-67h-115v-575h-78v575h-116v67h114v84q0 49 -26.5 75t-69.5 26t-68 -25.5t-25 -75.5v-18h-78v20q0 84 48.5 126t122.5 42q75 0 125 -42t50 -126v-86z" />
    <glyph glyph-name="dvmU" unicode="&#x941;" 
d="M-424 -155v89q43 -47 117.5 -89.5t141.5 -42.5q48 0 74 21.5t26 55.5q0 32 -21 49.5t-57 17.5q-43 0 -98 -33v71l11 5q10 5 21 9t29.5 8t37.5 4q77 0 115.5 -36t38.5 -95q0 -64 -47.5 -103.5t-126.5 -39.5q-69 0 -143.5 34t-118.5 75z" />
    <glyph glyph-name="dvmUU" unicode="&#x942;" 
d="M-96 -186v-64q-16 -5 -42 -5q-64 0 -106 35.5t-42 99.5q0 55 41.5 93.5t106.5 38.5q64 0 112 -29t73.5 -76t37.5 -95.5t12 -96.5h-73q0 93 -41 162.5t-116 69.5q-34 0 -55 -19t-21 -49q0 -34 23.5 -52t57.5 -18q21 0 32 5z" />
    <glyph glyph-name="dvmvR" unicode="&#x943;" 
d="M-308 -140q0 58 39 95.5t97 39.5v14h78v-73h-48q-41 0 -64.5 -20.5t-23.5 -56.5q0 -32 20 -52t60 -20q42 0 74 22v-64q-32 -21 -78 -21q-69 0 -111.5 37.5t-42.5 98.5z" />
    <glyph glyph-name="dvmvRR" unicode="&#x944;" 
d="M-104 -250h-12q-37 0 -57 -17t-20 -45t21 -44.5t61 -16.5q47 0 78 14v-67q-37 -14 -89 -14q-65 0 -108.5 31t-43.5 89q0 63 55 93q-85 24 -85 104q0 50 36 82.5t96 35.5v14h78v-72h-36q-94 0 -94 -62q0 -58 98 -58h22v-67z" />
    <glyph glyph-name="dvmEcandra" unicode="&#x945;" 
d="M-133 739q-77 0 -127.5 40t-50.5 117h78q0 -42 26 -68.5t74 -26.5t74.5 27t26.5 68h77q0 -75 -51.5 -116t-126.5 -41z" />
    <glyph glyph-name="dvmE" unicode="&#x947;" 
d="M-406 813v68q36 6 54 6q51 0 87 -21.5t66 -68.5l107 -162h-86l-87 132q-34 52 -91 52q-20 0 -50 -6z" />
    <glyph glyph-name="dvmAI" unicode="&#x948;" 
d="M-193 804l109 -169h-105q-56 42 -94 61t-81 19q-31 0 -58 -9v70q24 8 54 8q42 0 75 -16.5t77 -54.5l62 -55l-92 118q-44 56 -118 56q-30 0 -58 -7v68q18 6 61 6q107 0 168 -95z" />
    <glyph glyph-name="dvmOcandra" unicode="&#x949;" horiz-adv-x="266" 
d="M-22 575v67h310v-67h-116v-575h-78v575h-116zM130 739q-77 0 -127.5 40t-50.5 117h77q0 -41 26.5 -68t74.5 -27t74 26.5t26 68.5h78q0 -75 -51.5 -116t-126.5 -41z" />
    <glyph glyph-name="dvmO" unicode="&#x94b;" horiz-adv-x="265" 
d="M169 642h118v-67h-116v-575h-77v575h-116v67h105l-82 125q-34 52 -91 52q-20 0 -50 -6v68q36 6 54 6q51 0 87 -21.5t66 -68.5z" />
    <glyph glyph-name="dvmAU" unicode="&#x94c;" horiz-adv-x="265" 
d="M175 642h112v-67h-115v-575h-78v575h-116v67h88q-50 38 -87.5 55.5t-78.5 17.5q-31 0 -58 -9v70q24 8 54 8q42 0 75 -16.5t77 -54.5l62 -55l-92 118q-44 56 -118 56q-30 0 -58 -7v68q18 6 61 6q107 0 168 -95z" />
    <glyph glyph-name="dvVirama" unicode="&#x94d;" 
d="M58 -233h-97l-123 165h80z" />
    <glyph glyph-name="dvOm" unicode="&#x950;" horiz-adv-x="1235" 
d="M780 186q-34 -66 -74.5 -103.5t-102.5 -37.5q-50 0 -84.5 24t-51.5 57q-11 -51 -62 -88.5t-127 -37.5q-96 0 -168 43v79q77 -55 169 -55q57 0 90 30t33 78q0 42 -32.5 66.5t-95.5 24.5h-54v67h35q59 0 88 27t29 74q0 42 -27 68.5t-73 26.5q-70 0 -127 -39v70
q59 37 134 37q79 0 125 -45t46 -112q0 -48 -21.5 -81.5t-55.5 -47.5q61 -3 104 -76q4 -7 15.5 -27t16.5 -28.5t16.5 -23.5t21 -22t23.5 -12.5t29 -5.5q37 0 66.5 34t66.5 103q4 7 18.5 34t20 36t19 32t21.5 32.5t22.5 27t26 25t27 17t32 13t34.5 3.5q78 0 125.5 -58.5
t47.5 -155.5q0 -85 -51.5 -150t-138.5 -65q-52 0 -90 17v73q37 -23 84 -23q53 0 85.5 42t32.5 114q0 53 -23.5 94t-65.5 41q-38 0 -73 -41.5t-106 -174.5zM631 727q0 22 15 37t37 15t37 -15t15 -37t-15 -36.5t-37 -14.5t-37 14.5t-15 36.5zM682 516q-77 0 -128.5 40
t-51.5 116h77q0 -41 27.5 -67.5t75.5 -26.5t75 26.5t27 67.5h78q0 -75 -52 -115.5t-128 -40.5z" />
    <glyph glyph-name="dvKxA" unicode="&#x958;" horiz-adv-x="771" 
d="M154 13q22 0 38 -15.5t16 -37.5t-15.5 -37t-38.5 -15q-22 0 -37 15t-15 37t15 37.5t37 15.5zM793 575h-368v-143q46 48 117 48q82 0 133 -50t51 -131q0 -87 -57 -139t-142 -52q-11 0 -23 2v67q10 -2 20 -2q53 0 88 33t35 91q0 51 -31.5 83.5t-82.5 32.5q-44 0 -76 -30.5
t-32 -76.5v-308h-79v144q-44 -46 -116 -46q-82 0 -133 49.5t-51 130.5q0 87 57 139.5t141 52.5q16 0 23 -3v-66q-5 1 -19 1q-54 0 -89 -33t-35 -90q0 -51 32 -84t83 -33q44 0 75.5 31t31.5 77v305h-368v67h815v-67z" />
    <glyph glyph-name="dvKHxA" unicode="&#x959;" horiz-adv-x="779" 
d="M74 19q22 0 38 -15.5t16 -37.5t-15.5 -37t-38.5 -15q-22 0 -37 15t-15 37t15 37.5t37 15.5zM801 642v-67h-115v-575h-79v180q-46 -47 -120 -47q-69 0 -118 46t-49 119q0 77 49 122.5t120 45.5q25 0 48 -5v-65q-16 5 -38 5q-43 0 -72.5 -29t-29.5 -75t28.5 -73.5
t74.5 -27.5q44 0 75.5 30.5t31.5 79.5v269h-309v-142q0 -71 -44.5 -111t-118.5 -43l-12 -1l220 -278h-97l-215 279v65h67q122 0 122 97v134h-242v67h823z" />
    <glyph glyph-name="dvGxA" unicode="&#x95a;" horiz-adv-x="574" 
d="M129 83q22 0 38 -15.5t16 -37.5t-15.5 -37t-38.5 -15t-37.5 15t-14.5 37t15 37.5t37 15.5zM-22 642h618v-67h-116v-575h-77v575h-175v-234q0 -63 -32 -97.5t-93 -34.5q-41 0 -73 13v69q30 -14 61 -14q60 0 60 67v231h-173v67z" />
    <glyph glyph-name="dvJxA" unicode="&#x95b;" horiz-adv-x="650" 
d="M154 -33q22 0 38 -15.5t16 -37.5t-15.5 -37t-38.5 -15q-22 0 -37 15t-15 37t15 37.5t37 15.5zM-22 642h694v-67h-116v-575h-78v384h-201q72 -43 72 -141q0 -81 -54.5 -130.5t-144.5 -49.5q-66 0 -120 22v72q54 -28 112 -28t93.5 31.5t35.5 87.5q0 67 -46.5 101.5
t-128.5 34.5v67h382v124h-500v67z" />
    <glyph glyph-name="dvDDxA" unicode="&#x95c;" horiz-adv-x="521" 
d="M248 -83q22 0 38 -15.5t16 -37.5t-15.5 -37t-38.5 -15q-22 0 -37 15t-15 37t15 37.5t37 15.5zM399 424h-174q-36 0 -60 -15t-24 -48q0 -34 30 -49.5t105 -19.5q180 -5 180 -138q-1 -69 -55.5 -112t-147.5 -43q-107 0 -190 44v77q89 -55 190 -55q57 0 90 23t33 65
q0 37 -30 54t-100 20q-184 8 -184 132q0 64 45 98t115 34h99v84h-343v67h565v-67h-144v-151z" />
    <glyph glyph-name="dvDDHxA" unicode="&#x95d;" horiz-adv-x="556" 
d="M266 212v65q42 21 94 21q67 0 104 -34.5t37 -88.5q0 -67 -55 -110.5t-146 -43.5q-106 0 -176 61.5t-70 161.5q0 96 69.5 160t184.5 65q22 0 45 -3v109h-375v67h600v-67h-146v-183q-62 10 -102 10q-91 0 -143.5 -44.5t-52.5 -114.5t46.5 -113.5t120.5 -43.5q53 0 88 23.5
t35 64.5q0 27 -20 44t-53 17q-47 0 -85 -23zM247 -128q0 22 15 37.5t37 15.5t38 -15.5t16 -37.5t-15.5 -37t-38.5 -15t-37.5 15t-14.5 37z" />
    <glyph glyph-name="dvPHxA" unicode="&#x95e;" horiz-adv-x="791" 
d="M140 67q22 0 38 -15.5t16 -37.5t-15.5 -37t-38.5 -15q-22 0 -37 15t-15 37t15 37.5t37 15.5zM381 382v193h-234v-201q0 -71 25.5 -100.5t80.5 -29.5q53 0 90.5 36.5t37.5 101.5zM813 575h-353v-138q45 47 118 47q81 0 131.5 -50t50.5 -130q0 -88 -57 -139.5t-141 -51.5
q-18 0 -24 2v67q12 -2 20 -2q54 0 88.5 32.5t34.5 91.5q0 51 -31.5 83.5t-80.5 32.5q-45 0 -77 -31.5t-32 -78.5v-310h-79v238q-46 -58 -133 -59q-90 0 -135 45t-45 147v204h-90v67h835v-67z" />
    <glyph glyph-name="dvvRR" unicode="&#x960;" horiz-adv-x="795" 
d="M429 575v-228l141 82v56h72v-91q0 -84 88 -84h8v-65h-37q-94 0 -94 -67q0 -28 21.5 -44.5t64.5 -16.5h26v-65h-21q-36 0 -56 -18t-20 -48q0 -31 23.5 -47.5t62.5 -16.5q46 0 90 21v-66q-42 -21 -98 -21q-67 0 -112 32t-45 90q0 72 61 101q-75 24 -75 97q0 86 95 110
q-40 18 -51 69l-144 -85v-270h-79v230l-312 -187v81l224 133q-16 61 -48 95.5t-92 34.5q-49 0 -95 -22v75q43 20 99 20q71 0 123 -40.5t76 -124.5l25 14v266h-385v67h862v-67h-398z" />
    <glyph glyph-name="dvvLL" unicode="&#x961;" horiz-adv-x="778" 
d="M679 575v-275q0 -34 -11.5 -62.5t-28 -48t-33 -36t-28 -35t-11.5 -37.5q0 -29 22 -46.5t60 -17.5h27v-66h-51q-37 0 -56.5 -19.5t-19.5 -52.5q0 -31 23 -53.5t62 -22.5t76 14v-67q-36 -14 -80 -14q-71 0 -116.5 40t-45.5 103q0 40 20.5 68.5t52.5 41.5q-53 33 -53 91
q0 33 17.5 61t38.5 46t38.5 47.5t17.5 65.5v119h-74q-63 0 -90 -30.5t-27 -104.5v-54h-79v55q0 136 -98 136q-52 0 -82.5 -37.5t-30.5 -107.5q0 -184 163 -216l-2 -68q-112 19 -176 91t-64 194q0 93 49.5 151.5t136.5 58.5q113 0 144 -93q27 90 152 90h78v91h-615v67h800
v-67h-106z" />
    <glyph glyph-name="dvmvL" unicode="&#x962;" 
d="M30 -200q-61 -5 -61 -45q0 -35 43 -35q31 0 53 11v-44q-24 -9 -51 -9q-45 0 -73.5 20t-28.5 57q0 55 60 71v94q-14 6 -29 6q-50 0 -50 -63v-41h-59v41q0 61 -39 61q-20 0 -33 -19t-13 -54q0 -41 21 -70.5t61 -29.5q18 0 35 6v-44q-18 -5 -38 -5q-62 0 -99.5 40.5
t-37.5 102.5q0 51 27.5 83.5t72.5 32.5q27 0 47.5 -14.5t25.5 -39.5q4 25 26 40t51 15q54 0 89 -28v-140z" />
    <glyph glyph-name="dvmvLL" unicode="&#x963;" 
d="M41 -322h-6q-20 0 -32 -10.5t-12 -27.5q0 -36 47 -36q30 0 57 18v-45q-30 -14 -65 -14q-40 0 -68 18.5t-28 52.5q0 46 43 62q-65 11 -65 64q0 25 16.5 43.5t43.5 22.5v94q-14 6 -29 6q-50 0 -50 -63v-41h-59v41q0 61 -39 61q-20 0 -32.5 -19t-12.5 -54q0 -41 20.5 -70.5
t60.5 -29.5q18 0 35 6v-44q-18 -5 -38 -5q-62 0 -99.5 40.5t-37.5 102.5q0 51 27.5 83.5t72.5 32.5q27 0 47.5 -14.5t25.5 -39.5q4 25 26 40t51 15q50 0 85 -28v-140q-57 0 -57 -41q0 -37 60 -37h12v-44z" />
    <glyph glyph-name="danda" unicode="&#x964;" horiz-adv-x="343" 
d="M160 0v642h79v-642h-79z" />
    <glyph glyph-name="doubledanda" unicode="&#x965;" horiz-adv-x="560" 
d="M160 0v642h79v-642h-79zM377 0v642h78v-642h-78z" />
    <glyph glyph-name="dvZero" unicode="&#x966;" horiz-adv-x="539" 
d="M41 329q0 154 62 243.5t164 89.5q106 0 169 -89.5t63 -243.5q0 -152 -60.5 -244.5t-171.5 -92.5q-103 0 -164.5 92t-61.5 245zM122 329q0 -123 41.5 -192.5t103.5 -69.5q69 0 110 68t41 194q0 125 -42.5 191.5t-108.5 66.5q-59 0 -102 -67.5t-43 -190.5z" />
    <glyph glyph-name="dvOne" unicode="&#x967;" horiz-adv-x="357" 
d="M44 475v85l155 94h74v-654h-78v568z" />
    <glyph glyph-name="dvTwo" unicode="&#x968;" horiz-adv-x="505" 
d="M153 69h304v-69h-413v67q310 234 310 390q0 62 -36 95.5t-97 33.5q-77 0 -156 -59v79q71 55 163 55q88 0 148 -51t60 -145q0 -177 -283 -396z" />
    <glyph glyph-name="dvThree" unicode="&#x969;" horiz-adv-x="491" 
d="M79 547v77q60 37 134 37q98 0 151.5 -49.5t53.5 -122.5q0 -53 -26.5 -95t-78.5 -63q57 -13 90.5 -52.5t33.5 -98.5q0 -80 -56 -133t-158 -53q-94 0 -163 33v79q74 -39 161 -39q64 0 99.5 33t35.5 86t-39.5 81.5t-113.5 28.5h-42v69h42q56 0 94.5 31.5t38.5 84.5t-33 80
t-91 27q-68 0 -133 -41z" />
    <glyph glyph-name="dvFour" unicode="&#x96a;" horiz-adv-x="571" 
d="M135 228h219v379zM529 228v-69h-97v-159h-78v159h-299v69l249 426h128v-426h97z" />
    <glyph glyph-name="dvFive" unicode="&#x96b;" horiz-adv-x="528" 
d="M179 585v-196q45 10 78 10q100 0 158.5 -53t58.5 -142q0 -97 -63.5 -154.5t-173.5 -57.5q-99 0 -168 34v78q64 -38 155 -38q168 0 168 141q0 57 -39 88.5t-101 31.5q-73 0 -151 -35v362h328v-69h-250z" />
    <glyph glyph-name="dvSix" unicode="&#x96c;" horiz-adv-x="525" 
d="M280 62q56 0 89 42.5t33 108.5q0 63 -33 100t-87 37q-94 0 -152 -67q1 -114 42 -167.5t108 -53.5zM439 658v-77q-43 19 -91 19q-89 0 -143.5 -70t-69.5 -172q65 63 156 63q90 0 141.5 -57.5t51.5 -151.5q0 -98 -56 -160.5t-148 -62.5q-114 0 -172.5 81.5t-58.5 218.5
q0 164 79.5 274t218.5 110q45 0 92 -15z" />
    <glyph glyph-name="dvSeven" unicode="&#x96d;" horiz-adv-x="500" 
d="M37 654h426v-69l-270 -585h-85l272 585h-343v69z" />
    <glyph glyph-name="dvEight" unicode="&#x96e;" horiz-adv-x="540" 
d="M268 62q67 0 103 33.5t36 81.5q0 47 -34.5 79t-104.5 34q-68 -3 -101 -37t-33 -85q0 -45 34.5 -75.5t99.5 -30.5zM267 591q-57 0 -89.5 -34t-32.5 -82q0 -56 35 -84t91 -28q53 0 86.5 29.5t33.5 84.5q0 48 -32 81t-92 33zM368 328q119 -37 119 -159q0 -80 -63 -128.5
t-157 -48.5q-92 0 -153 46.5t-61 125.5q0 122 116 162q-105 39 -105 147q0 87 60.5 137.5t142.5 50.5q84 0 144 -48.5t60 -138.5q0 -50 -27 -88t-76 -58z" />
    <glyph glyph-name="dvNine" unicode="&#x96f;" horiz-adv-x="513" 
d="M394 368v5q0 95 -34.5 155.5t-108.5 60.5q-56 0 -88.5 -40.5t-32.5 -102.5q0 -68 36.5 -105t98.5 -37q76 0 129 64zM85 11v78q52 -23 110 -23q95 0 140.5 56.5t55.5 170.5q-53 -59 -145 -59q-81 0 -139.5 57.5t-58.5 153.5q0 90 53 153.5t147 63.5q111 0 168.5 -82
t57.5 -207q0 -180 -66.5 -280.5t-209.5 -100.5q-58 0 -113 19z" />
    <glyph glyph-name="dvAbbreviationsign" unicode="&#x970;" horiz-adv-x="434" 
d="M57 303q0 65 46.5 111.5t112.5 46.5q65 0 111.5 -46.5t46.5 -111.5q0 -66 -46.5 -112.5t-111.5 -46.5q-66 0 -112.5 46.5t-46.5 112.5zM126 303q0 -37 26 -63.5t64 -26.5q37 0 63 26.5t26 63.5t-26 63t-63 26t-63.5 -26t-26.5 -63z" />
    <glyph glyph-name="dvAcandra" unicode="&#x972;" horiz-adv-x="659" 
d="M627 896h77q0 -75 -51.5 -116t-126.5 -41q-77 0 -127.5 40t-50.5 117h78q0 -42 26 -68.5t74 -26.5t74.5 27t26.5 68zM396 575v67h285v-67h-116v-575h-78v260h-138q1 -7 1 -22q0 -74 -52.5 -120t-145.5 -46q-65 0 -122 24v74q62 -31 121 -31q48 0 84.5 25.5t36.5 80.5
q0 43 -31 67t-94 24h-34v70h32q53 0 80 23t27 62q0 82 -94 82q-53 0 -97 -24v74q43 18 98 18q82 0 126.5 -38t44.5 -103q0 -50 -25.5 -83t-66.5 -44q51 -7 82 -45h167v247h-91z" />
    <glyph glyph-name="zerowidthspace" unicode="&#x200b;" 
 />
    <glyph glyph-name="zerowidthnonjoiner" unicode="&#x200c;" 
d="M24 -230h-47v1041h47v-1041z" />
    <glyph glyph-name="zerowidthjoiner" unicode="&#x200d;" 
d="M129 593l-33 -33l-72 75v-865h-47v865l-69 -73l-33 33l93 93l-95 95l33 33l95 -95l96 95l32 -32l-96 -96z" />
    <glyph glyph-name="endash" unicode="&#x2013;" horiz-adv-x="540" 
d="M57 237v66h426v-66h-426z" />
    <glyph glyph-name="emdash" unicode="&#x2014;" horiz-adv-x="823" 
d="M57 239v66h709v-66h-709z" />
    <glyph glyph-name="quoteleft" unicode="&#x2018;" horiz-adv-x="180" 
d="M193 695l-84 -224h-98l120 224h62z" />
    <glyph glyph-name="quoteright" unicode="&#x2019;" horiz-adv-x="181" 
d="M12 471l84 224h98l-120 -224h-62z" />
    <glyph glyph-name="quotesinglbase" unicode="&#x201a;" horiz-adv-x="181" 
d="M2 -123l83 224h98l-119 -224h-62z" />
    <glyph glyph-name="quotedblleft" unicode="&#x201c;" horiz-adv-x="324" 
d="M193 695l-84 -224h-97l120 224h61zM337 695l-83 -224h-95l117 224h61z" />
    <glyph glyph-name="quotedblright" unicode="&#x201d;" horiz-adv-x="323" 
d="M155 471l85 224h97l-121 -224h-61zM12 471l83 224h94l-116 -224h-61z" />
    <glyph glyph-name="quotedblbase" unicode="&#x201e;" horiz-adv-x="323" 
d="M146 -123l84 224h97l-120 -224h-61zM3 -123l82 224h95l-116 -224h-61z" />
    <glyph glyph-name="dagger" unicode="&#x2020;" horiz-adv-x="523" 
d="M482 503v-69h-188v-434h-72v434h-180v69h180v171h72v-171h188z" />
    <glyph glyph-name="daggerdbl" unicode="&#x2021;" horiz-adv-x="530" 
d="M485 434h-188v-184h188v-69h-188v-181h-72v181h-180v69h180v184h-180v69h180v171h72v-171h188v-69z" />
    <glyph glyph-name="bullet" unicode="&#x2022;" horiz-adv-x="449" 
d="M92 356q0 57 37.5 95t94.5 38q56 0 94.5 -38.5t38.5 -94.5t-38 -94.5t-94 -38.5q-57 0 -95 38t-38 95z" />
    <glyph glyph-name="ellipsis" unicode="&#x2026;" horiz-adv-x="720" 
d="M36 51q0 25 17 42t42 17t42 -17t17 -42t-17 -42t-42 -17t-42 17t-17 42zM301 51q0 25 17 42t42 17t42 -17t17 -42t-17 -42t-42 -17t-42 17t-17 42zM566 51q0 25 17 42t42 17t42 -17t17 -42t-17 -42t-42 -17t-42 17t-17 42z" />
    <glyph glyph-name="perthousand" unicode="&#x2030;" horiz-adv-x="1212" 
d="M202 -1l357 666h77l-359 -666h-75zM478 151q0 66 46 112.5t112 46.5q65 0 111.5 -47t46.5 -112t-46.5 -111.5t-111.5 -46.5q-66 0 -112 46.5t-46 111.5zM45 515q0 65 46.5 111.5t111.5 46.5t112 -46.5t47 -111.5q0 -66 -47 -112.5t-112 -46.5t-111.5 46.5t-46.5 112.5z
M114 515q0 -37 26 -63.5t63 -26.5t63.5 26.5t26.5 63.5t-26.5 63t-63.5 26t-63 -26t-26 -63zM547 151q0 -37 26 -63t63 -26t63.5 26t26.5 63t-26 63.5t-64 26.5q-37 0 -63 -26.5t-26 -63.5zM866 151q0 65 46.5 112t112.5 47q65 0 111.5 -47t46.5 -112t-46.5 -111.5
t-111.5 -46.5q-66 0 -112.5 46.5t-46.5 111.5zM935 151q0 -37 26.5 -63t63.5 -26t63 26t26 63t-26 63.5t-63 26.5t-63.5 -26.5t-26.5 -63.5z" />
    <glyph glyph-name="guilsinglleft" unicode="&#x2039;" horiz-adv-x="299" 
d="M267 415l-147 -162l147 -162h-87l-151 162l151 162h87z" />
    <glyph glyph-name="guilsinglright" unicode="&#x203a;" horiz-adv-x="297" 
d="M120 415l150 -162l-150 -162h-88l147 162l-147 162h88z" />
    <glyph glyph-name="fraction" unicode="&#x2044;" horiz-adv-x="311" 
d="M-21 0h-71l450 712h72z" />
    <glyph glyph-name="rupee" unicode="&#x20a8;" horiz-adv-x="889" 
d="M158 604v-269h102q69 0 105.5 37.5t36.5 96.5q0 135 -151 135h-93zM77 674h169q117 0 177.5 -55t60.5 -152q-2 -70 -37 -119t-99 -69l177 -279h-97l-165 266h-8h-97v-266h-81v674zM839 490v-75q-46 28 -126 28q-40 0 -63.5 -18.5t-23.5 -47.5q0 -18 7 -31.5t27.5 -26.5
t30 -17.5t41.5 -18.5q64 -26 100 -59t36 -89q0 -65 -45.5 -103t-124.5 -38q-92 0 -149 31v77q67 -40 144 -40q46 0 70 18t24 49q0 36 -26.5 56t-88.5 45q-57 22 -91.5 55t-34.5 89q0 63 47.5 100.5t118.5 37.5q79 0 127 -22z" />
    <glyph glyph-name="Euro" unicode="&#x20ac;" horiz-adv-x="590" 
d="M550 637v-78q-40 25 -111 25t-123 -38.5t-75 -109.5h199v-57h-212q-3 -25 -3 -55q0 -24 3 -46h212v-57h-201q22 -74 74.5 -114t120.5 -40q72 0 116 27v-78q-45 -24 -125 -24q-99 0 -172.5 61.5t-98.5 167.5h-102v57h92q-2 30 -2 46q0 28 3 55h-93v57h103q27 106 101 165
t174 59q77 0 120 -23z" />
    <glyph glyph-name="indianrupee" unicode="&#x20b9;" horiz-adv-x="541" 
d="M493 674v-68h-162q49 -38 63 -104h99v-67h-96q-7 -82 -68 -131t-162 -49h-9l204 -255h-100l-198 255v67h98q142 0 155 113h-253v67h249q-25 104 -152 104h-97v68h429z" />
    <glyph glyph-name="uni20BA" unicode="&#x20ba;" horiz-adv-x="580" 
d="M460 363h76q0 -158 -92 -260.5t-236 -102.5h-55v320l-90 -47v72l90 47v1l-90 -47v71l90 47v191h79v-150l110 58v-72l-110 -57v-1l110 57v-71l-110 -58v-291q102 12 165 96.5t63 196.5z" />
    <glyph glyph-name="uni20BD" unicode="&#x20bd;" horiz-adv-x="584" 
d="M213 587v-270h86q78 0 120 33.5t42 96.5q0 67 -43.5 103.5t-125.5 36.5h-79zM299 252h-86v-99h205v-65h-205v-88h-81v88h-104v65h104v99h-104v65h104v338h159q119 0 184.5 -55.5t65.5 -149.5q0 -92 -64 -145t-178 -53z" />
    <glyph glyph-name="uni2113" unicode="&#x2113;" horiz-adv-x="501" 
d="M237 474v-183q66 29 100.5 85t34.5 127q0 46 -17.5 75.5t-49.5 29.5q-68 0 -68 -134zM237 217v-7q0 -74 25 -110.5t84 -36.5q58 0 109 31v-67q-51 -32 -120 -32q-82 0 -129.5 48t-47.5 139v18q-30 -2 -45 -2q-42 0 -71 10v71q37 -11 70 -11q24 0 46 3v207q0 91 34.5 146
t107.5 55t109 -49.5t36 -126.5q0 -96 -55 -174.5t-153 -111.5z" />
    <glyph glyph-name="trademark" unicode="&#x2122;" horiz-adv-x="694" 
d="M266 331l27 343h78l57 -162l34 -106q15 45 37 106l61 162h79l25 -343h-60l-10 155l-4 116q-10 -32 -41 -116l-56 -148h-61l-52 148l-39 116q0 -34 -6 -116l-9 -155h-60zM2 620v54h232v-54h-85v-290h-60v290h-87z" />
    <glyph glyph-name="uni2126" unicode="&#x2126;" horiz-adv-x="781" 
d="M569 71h159v-71h-293v71q84 15 125.5 89t41.5 185q0 122 -56 194t-159 72q-101 0 -158 -72t-57 -194q0 -107 46 -183t127 -91v-71h-292v71h157q-123 83 -123 274q0 154 81 248t219 94q140 0 220 -93.5t80 -248.5q0 -193 -118 -274z" />
    <glyph glyph-name="estimated" unicode="&#x212e;" horiz-adv-x="834" 
d="M645 347v199q-37 48 -98 76.5t-133 28.5q-67 0 -127.5 -28.5t-101.5 -77.5v-198h460zM802 316h-617v-188q90 -108 230 -108q143 0 239 113h75q-55 -66 -137 -104.5t-177 -38.5q-161 0 -274 100t-113 242q0 145 113 248.5t274 103.5q160 0 273.5 -104t113.5 -248v-16z" />
    <glyph glyph-name="partialdiff" unicode="&#x2202;" horiz-adv-x="516" 
d="M246 65q71 0 108 59t39 155q-55 72 -143 72q-57 0 -93 -39t-36 -105q0 -62 33.5 -102t91.5 -40zM141 674h112q83 -54 150 -166t67 -222q0 -133 -59.5 -213.5t-170.5 -80.5q-94 0 -147.5 63.5t-53.5 153.5q0 96 62 154t145 58t137 -56q-25 94 -95 178.5t-147 130.5z" />
    <glyph glyph-name="uni2206" unicode="&#x2206;" horiz-adv-x="618" 
d="M118 69h382l-67 193l-122 350q-26 -70 -125 -350zM367 674l220 -608v-66h-556v66l224 608h112z" />
    <glyph glyph-name="product" unicode="&#x220f;" horiz-adv-x="594" 
d="M520 674v-854h-81v781h-261v-605q0 -180 -153 -180q-37 0 -64 11v75q26 -12 54 -12q82 0 82 97v687h423z" />
    <glyph glyph-name="summation" unicode="&#x2211;" horiz-adv-x="441" 
d="M479 674v-71h-358l178 -359l-178 -373h358v-71h-449v71l179 373l-179 359v71h449z" />
    <glyph glyph-name="minus" unicode="&#x2212;" horiz-adv-x="553" 
d="M57 304v72h440v-72h-440z" />
    <glyph glyph-name="uni2215" unicode="&#x2215;" horiz-adv-x="358" 
d="M11 0h-71l451 712h71z" />
    <glyph glyph-name="uni2219" unicode="&#x2219;" horiz-adv-x="242" 
d="M62 337q0 25 17 42t42 17t42 -17t17 -42t-17 -42t-42 -17t-42 17t-17 42z" />
    <glyph glyph-name="radical" unicode="&#x221a;" horiz-adv-x="755" 
d="M219 422l107 -299q87 -239 87 -255q0 1 7.5 33.5t25 97.5t37.5 130q172 561 235 769h83l-332 -1096h-111l-202 552h-123l15 68h171z" />
    <glyph glyph-name="infinity" unicode="&#x221e;" horiz-adv-x="835" 
d="M123 348q0 -43 28 -72.5t76 -29.5q71 0 142 100q-23 30 -40 48.5t-45.5 35t-57.5 16.5q-49 0 -76 -27.5t-27 -70.5zM416 297q-44 -54 -90 -85t-107 -31q-81 0 -125.5 44.5t-44.5 118.5t47.5 120.5t128.5 46.5q59 0 104 -30.5t89 -87.5q91 119 196 119q81 0 126.5 -44
t45.5 -117q0 -74 -48 -122t-128 -48q-61 0 -105 30t-89 86zM711 347q0 42 -28 71t-76 29q-72 0 -141 -102q37 -48 68.5 -72.5t74.5 -24.5q49 0 75.5 27t26.5 72z" />
    <glyph glyph-name="integral" unicode="&#x222b;" horiz-adv-x="314" 
d="M315 699v-72q-23 9 -46 9q-31 0 -52 -22.5t-21 -68.5v-551q0 -74 -39 -117t-110 -43q-27 0 -48 6v73q21 -9 45 -9q31 0 52 22t21 68v552q0 74 39.5 117t109.5 43q29 0 49 -7z" />
    <glyph glyph-name="approxequal" unicode="&#x2248;" horiz-adv-x="617" 
d="M509 297l57 -41q-56 -88 -140 -88q-46 0 -115 36.5t-96 36.5q-67 0 -114 -68l-51 45q68 93 153 93q53 0 119.5 -36.5t97.5 -36.5q56 0 89 59zM509 497l57 -41q-56 -88 -140 -88q-46 0 -115 36.5t-96 36.5q-67 0 -114 -68l-51 45q68 93 153 93q53 0 119.5 -36.5
t97.5 -36.5q55 0 89 59z" />
    <glyph glyph-name="notequal" unicode="&#x2260;" horiz-adv-x="553" 
d="M497 407h-163l-59 -134h222v-68h-253l-39 -88h-56l39 88h-131v68h162l59 134h-221v68h252l39 88h56l-39 -88h132v-68z" />
    <glyph glyph-name="lessequal" unicode="&#x2264;" horiz-adv-x="548" 
d="M52 120v68h440v-68h-440zM492 559v-74l-407 -81l407 -82v-73l-440 97v115z" />
    <glyph glyph-name="greaterequal" unicode="&#x2265;" horiz-adv-x="548" 
d="M57 120v68h440v-68h-440zM57 559l440 -98v-115l-440 -97v73l408 82l-408 81v74z" />
    <glyph glyph-name="lozenge" unicode="&#x25ca;" horiz-adv-x="564" 
d="M380 253l44 84l-44 84l-99 187q-31 -62 -97 -187l-44 -84l44 -84l97 -187q31 63 99 187zM328 674l184 -337l-184 -337h-96l-180 337l180 337h96z" />
    <glyph glyph-name="dottedcircle" unicode="&#x25cc;" horiz-adv-x="660" 
d="M139 517q0 19 12.5 31.5t31.5 12.5t31.5 -12.5t12.5 -31.5q0 -20 -12.5 -32.5t-31.5 -12.5t-31.5 12.5t-12.5 32.5zM57 407q0 19 13 31.5t33 12.5q18 0 31 -12.5t13 -31.5t-13 -31.5t-31 -12.5q-20 0 -33 12.5t-13 31.5zM44 281q0 19 12.5 32t31.5 13t31.5 -12.5
t12.5 -32.5q0 -19 -12.5 -31t-31.5 -12t-31.5 12t-12.5 31zM96 165q0 19 12.5 31.5t31.5 12.5t31.5 -12.5t12.5 -31.5t-12.5 -31.5t-31.5 -12.5q-20 0 -32 12.5t-12 31.5zM197 90q0 18 13 31t32 13t31.5 -13t12.5 -31q0 -20 -12.5 -33t-31.5 -13t-32 13t-13 33zM324 74
q0 20 12 32t32 12t32.5 -12.5t12.5 -31.5t-12.5 -31.5t-32.5 -12.5t-32 12t-12 32zM445 127q0 19 12.5 31.5t31.5 12.5t32 -12.5t13 -31.5t-13 -31.5t-32 -12.5t-31.5 12.5t-12.5 31.5zM518 225q0 19 13 32t32 13q18 0 30.5 -13t12.5 -32t-12.5 -31.5t-30.5 -12.5
q-19 0 -32 12.5t-13 31.5zM528 359q0 19 12 31.5t32 12.5q19 0 31.5 -12.5t12.5 -31.5t-12.5 -31.5t-31.5 -12.5q-20 0 -32 12.5t-12 31.5zM478 477q0 19 12.5 32t31.5 13t31.5 -12.5t12.5 -32.5q0 -19 -12.5 -31.5t-31.5 -12.5t-31.5 12.5t-12.5 31.5zM383 545
q0 19 12.5 32t32.5 13q19 0 31 -12.5t12 -32.5q0 -18 -12.5 -31t-30.5 -13q-19 0 -32 13t-13 31zM257 560q0 20 12.5 32t31.5 12t31.5 -12t12.5 -32t-12.5 -32t-31.5 -12t-31.5 12t-12.5 32z" />
    <glyph glyph-name="dvK_SSA" horiz-adv-x="751" 
d="M271 583q-40 0 -65 -25t-25 -60q0 -83 95 -103q84 29 84 104q0 32 -26.5 58t-62.5 26zM580 642h196v-67h-116v-575h-79l-1 325h-248q-39 0 -71 7q-57 -17 -93 -49t-36 -78q0 -43 29.5 -68.5t74.5 -25.5q51 0 89 32.5t50 84.5h72v-228h-77v112q-14 -27 -55 -47t-85 -20
q-80 0 -129.5 43.5t-49.5 114.5q0 56 35.5 97.5t92.5 63.5q-75 49 -75 135q0 59 46.5 104t116.5 45q75 0 122.5 -42.5t47.5 -102.5q0 -73 -58 -114h201v253z" />
    <glyph glyph-name="dvJ_NYA" horiz-adv-x="722" 
d="M-30 642h811v-67h-132v-575h-78v424h-322q-91 0 -91 -58q0 -30 27 -44.5t93 -15.5q179 -2 179 -137q0 -67 -49.5 -109.5t-121.5 -42.5q-88 0 -144 51v-116h-77v226h71q17 -42 57.5 -70t88.5 -28q42 0 68.5 25t26.5 64q0 42 -33 57.5t-94 15.5q-84 0 -128.5 31.5
t-44.5 89.5q0 61 47 94.5t123 33.5h324v84h-601v67z" />
    <glyph glyph-name="dvK" horiz-adv-x="519" 
d="M425 575v-143q46 48 117 48q79 0 130 -48l-55 -54q-31 37 -84 37q-44 0 -76 -30.5t-32 -76.5v-308h-79v144q-44 -46 -116 -46q-82 0 -133 49.5t-51 130.5q0 87 57 139.5t141 52.5q16 0 23 -3v-66q-5 1 -19 1q-54 0 -89 -33t-35 -90q0 -51 32 -84t83 -33q44 0 75.5 31
t31.5 77v305h-368v67h563v-67h-116z" />
    <glyph glyph-name="dvKH" horiz-adv-x="583" 
d="M535 282v-61q-27 -11 -54 -11q-58 0 -97.5 36.5t-39.5 95.5q0 63 45.5 106t113.5 43q81 0 134 -49t53 -143q0 -106 -78.5 -181.5t-208.5 -75.5q-125 0 -214 75.5t-124 191.5v65h66q49 0 62 20.5t13 74.5v106h-228v67h627v-67h-320v-117q0 -73 -25 -109t-88 -39
q-4 -2 -16 -2q21 -83 89.5 -140t162.5 -57q96 0 153 52t57 136q0 58 -28 93.5t-83 35.5q-41 0 -64 -24.5t-23 -59.5q0 -32 20 -52t50 -20q25 0 45 10z" />
    <glyph glyph-name="dvG" horiz-adv-x="304" 
d="M326 642v-67h-98v-234q0 -63 -32 -97.5t-93 -34.5q-41 0 -73 13v69q30 -14 61 -14q60 0 60 67v231h-173v67h348z" />
    <glyph glyph-name="dvGH" horiz-adv-x="363" 
d="M434 233l31 -55q-34 -39 -87.5 -62t-113.5 -23q-87 0 -140.5 41.5t-53.5 111.5q0 52 31 83.5t86 42.5q-45 5 -78 33.5t-33 78.5q0 55 42 91h-140v67h407v-67h-174q-56 -30 -56 -89q0 -79 126 -79h48v-68h-59q-56 0 -88.5 -24.5t-32.5 -68.5q0 -43 35.5 -65t85.5 -22
q49 0 92.5 19t71.5 55z" />
    <glyph glyph-name="dvNG" horiz-adv-x="574" 
d="M227 -68h80l140 -165h-97zM507 399q23 0 38.5 -15.5t15.5 -37.5t-15.5 -37t-38.5 -15t-37.5 15t-14.5 37q0 23 15 38t37 15zM-22 642h619v-67h-198v-151h-174q-36 0 -60 -15t-24 -48q0 -34 30 -49.5t105 -19.5q180 -5 180 -138q-1 -69 -55.5 -112t-147.5 -43
q-107 0 -190 44v77q89 -55 190 -55q57 0 90 23t33 65q0 37 -30 54t-100 20q-184 8 -184 132q0 64 45 98t115 34h99v84h-343v67z" />
    <glyph glyph-name="dvC" horiz-adv-x="386" 
d="M408 642v-67h-430v67h430zM477 280l37 -49q-25 -54 -86.5 -93t-141.5 -39q-85 0 -139.5 43t-54.5 119q0 87 77 126h-141v67h342v-67q-109 0 -154.5 -34.5t-45.5 -86.5q0 -46 34.5 -74t87.5 -28q61 0 112 34.5t73 81.5z" />
    <glyph glyph-name="dvCH" horiz-adv-x="623" 
d="M645 575h-422q-62 -34 -62 -102q0 -42 29.5 -67t71.5 -25h30v-67h-38q-53 0 -81.5 -23.5t-28.5 -64.5q0 -48 43 -76t109 -28q89 0 145 49.5t56 136.5q0 51 -28.5 80.5t-83.5 29.5q-27 0 -43 -7v65q17 7 55 7q87 0 133 -47.5t46 -126.5q0 -109 -79.5 -180.5t-200.5 -71.5
q-102 0 -166.5 45t-64.5 123q0 53 31.5 87.5t81.5 39.5q-36 6 -65.5 38.5t-29.5 82.5q0 64 45 102h-150v67h667v-67z" />
    <glyph glyph-name="dvJ" horiz-adv-x="422" 
d="M444 642v-67h-466v67h466zM545 451v-67h-268q72 -43 72 -141q0 -81 -54.5 -130.5t-144.5 -49.5q-66 0 -120 22v72q54 -28 112 -28t93.5 31.5t35.5 87.5q0 67 -46.5 101.5t-128.5 34.5v67h449z" />
    <glyph glyph-name="dvJH" horiz-adv-x="538" 
d="M649 316v-64h-226q29 -35 29 -85q0 -66 -46.5 -109t-120.5 -43q-88 0 -144 50v-113h-76v226h70q17 -42 58 -70t88 -28q42 0 67.5 23t25.5 62q0 78 -118 86q-87 5 -134 31t-47 90q0 61 45.5 95t120.5 34h86v74h-349v67h582v-67h-154v-141h-160q-92 0 -92 -60
q0 -29 25.5 -40.5t88.5 -16.5l14 -1h367z" />
    <glyph glyph-name="dvNY" horiz-adv-x="455" 
d="M477 642v-67h-499v67h499zM564 325v-67h-179q-7 -79 -64 -129t-147 -51q-80 0 -152 36v74q69 -42 146 -42q65 0 101 36.5t36 94.5q0 55 -32.5 89t-89.5 34q-45 0 -78 -14v67q32 13 79 13q82 0 133 -37t64 -104h183z" />
    <glyph glyph-name="dvTT" horiz-adv-x="495" 
d="M494 -211h-97l-123 165h80zM315 88q79 0 142 38v-72q-62 -32 -145 -32q-114 0 -184.5 57.5t-70.5 158.5q0 97 69 158t178 62q16 0 24 -1v118h-350v67h539v-67h-111v-186q-32 5 -70 5q-89 0 -143.5 -40.5t-54.5 -116.5q0 -71 48.5 -110t128.5 -39z" />
    <glyph glyph-name="dvTTH" horiz-adv-x="564" 
d="M244 -6h80l140 -165h-97zM429 259q0 62 -40 95t-107 33q-60 0 -103.5 -32t-43.5 -95q0 -60 40 -97t107 -37q66 0 106.5 37t40.5 96zM586 575h-244v-129q75 -14 121 -62.5t46 -124.5q0 -87 -62.5 -142t-164.5 -55q-101 0 -164 55t-63 143t61.5 137t147.5 54v124h-286v67
h608v-67z" />
    <glyph glyph-name="dvDD" horiz-adv-x="521" 
d="M222 -68h80l140 -165h-97zM399 424h-174q-36 0 -60 -15t-24 -48q0 -34 30 -49.5t105 -19.5q180 -5 180 -138q-1 -69 -55.5 -112t-147.5 -43q-107 0 -190 44v77q89 -55 190 -55q57 0 90 23t33 65q0 37 -30 54t-100 20q-184 8 -184 132q0 64 45 98t115 34h99v84h-343v67
h565v-67h-144v-151z" />
    <glyph glyph-name="dvDDH" horiz-adv-x="556" 
d="M482 -212h-97l-123 165h80zM266 212v65q42 21 94 21q67 0 104 -34.5t37 -88.5q0 -67 -55 -110.5t-146 -43.5q-106 0 -176 61.5t-70 161.5q0 96 69.5 160t184.5 65q22 0 45 -3v109h-375v67h600v-67h-146v-183q-62 10 -102 10q-91 0 -143.5 -44.5t-52.5 -114.5t46.5 -113.5
t120.5 -43.5q53 0 88 23.5t35 64.5q0 27 -20 44t-53 17q-47 0 -85 -23z" />
    <glyph glyph-name="dvNN" horiz-adv-x="496" 
d="M334 348v227h-183v-227q0 -109 89 -109q94 0 94 109zM518 642v-67h-105v-225q0 -86 -44.5 -131.5t-129.5 -45.5q-166 0 -166 177v225h-95v67h540z" />
    <glyph glyph-name="dvT" horiz-adv-x="381" 
d="M534 384h-213q-177 0 -177 -156q0 -74 36.5 -117t107.5 -43q17 0 23 1v-67q-16 -2 -30 -2q-100 0 -158 64t-58 165q0 100 63 161.5t184 61.5h222v-68zM-22 575v67h425v-67h-425z" />
    <glyph glyph-name="dvTH" horiz-adv-x="431" 
d="M361 507q0 -82 -62.5 -132.5t-178.5 -78.5q14 -59 61 -90t112 -31q61 0 121 31t95 80l40 -56q-47 -54 -112.5 -88t-143.5 -34q-105 0 -178.5 57.5t-86.5 176.5q132 28 194 66t62 98q0 34 -16.5 55t-49.5 21t-50 -19.5t-17 -49.5q0 -23 12 -56h-77q-12 34 -12 64
q0 52 39.5 89.5t104.5 37.5q67 0 105 -40.5t38 -100.5z" />
    <glyph glyph-name="dvD" horiz-adv-x="550" 
d="M611 -243h-97l-123 165h80zM-22 642h594v-67h-120v-167h-176q-68 0 -107 -35t-39 -98q0 -65 35 -102t94 -37t94.5 33t37.5 85h75v-264h-78v133q-41 -52 -135 -52q-93 0 -150 58t-57 143q0 89 59 145.5t165 56.5h104v101h-396v67z" />
    <glyph glyph-name="dvDH" horiz-adv-x="426" 
d="M512 263l42 -57q-46 -60 -117 -101t-164 -41q-96 0 -153 45.5t-57 114.5q0 56 35 89.5t92 40.5q-56 6 -89 36t-33 84q0 69 62 101h-152v67h310v-67h-1q-66 0 -103 -28t-37 -72q0 -45 38 -66.5t98 -21.5h50v-67h-59q-61 0 -96 -25.5t-35 -70.5q0 -41 36 -67t98 -26
q142 0 235 132z" />
    <glyph glyph-name="dvN" horiz-adv-x="265" 
d="M-22 575v67h310v-67h-310zM115 395h266v-66h-240q-18 0 -25 -9t-7 -30q0 -35 13 -74h-66q-28 56 -28 104q0 75 87 75z" />
    <glyph glyph-name="dvP" horiz-adv-x="338" 
d="M406 350l47 -43q-28 -55 -81 -93t-124 -38q-180 0 -180 199v200h-90v67h382v-67h-213v-201q0 -71 26 -102.5t80 -31.5q50 0 91.5 30.5t61.5 79.5z" />
    <glyph glyph-name="dvPH" horiz-adv-x="616" 
d="M147 575v-201q0 -71 25.5 -100.5t80.5 -29.5q53 0 90.5 36.5t37.5 101.5v193h-234zM460 575v-138q45 47 122 47q116 0 170 -98l-60 -46q-35 80 -116 80q-49 0 -82.5 -31t-33.5 -79v-310h-79v238q-46 -58 -133 -59q-90 0 -135 45t-45 147v204h-90v67h660v-67h-178z" />
    <glyph glyph-name="dvB" horiz-adv-x="379" 
d="M401 642v-67h-423v67h423zM375 170l-215 209q-29 -37 -29 -93q0 -62 41 -101.5t104 -39.5q56 0 99 25zM464 259l45 -45q-93 -133 -237 -133q-90 0 -153.5 57.5t-63.5 148.5t61.5 149.5t157.5 58.5q40 0 83 -10v-69q-40 13 -78 13q-46 0 -78 -17l215 -211q22 21 48 58z
" />
    <glyph glyph-name="dvBH" horiz-adv-x="326" 
d="M421 347v-66h-234v-137h-70l-24 56q-27 60 -27 89q0 21 11.5 36t30.5 19v170q0 34 -10 49.5t-36 15.5q-32 0 -56 -13v65q30 15 70 15q111 0 111 -119v-180h234z" />
    <glyph glyph-name="dvM" horiz-adv-x="351" 
d="M461 347v-69h-270v-135h-68l-25 56q-27 64 -27 90q0 21 11.5 35.5t30.5 19.5v231h-135v67h396v-67h-183v-228h270z" />
    <glyph glyph-name="dvY" horiz-adv-x="386" 
d="M408 575h-141q25 -38 25 -93q0 -118 -148 -164q13 -56 55 -91t102 -35q52 0 94.5 27t60.5 74l52 -42q-26 -52 -79.5 -89t-133.5 -37q-95 0 -161.5 62.5t-82.5 179.5q80 12 121.5 44t41.5 75q0 52 -31 89h-205v67h430v-67z" />
    <glyph glyph-name="dvR" horiz-adv-x="376" 
d="M31 279v65h67q122 0 122 96v135h-242v67h420v-67h-100v-142q0 -71 -44 -111.5t-118 -42.5h-11l212 -279h-95zM333 -233h-97l-123 165h80z" />
    <glyph glyph-name="dvL" horiz-adv-x="478" 
d="M333 68v-65q-18 -3 -38 -3q-108 0 -174 74.5t-66 188.5q0 91 47 148.5t125 57.5q54 0 89 -24.5t45 -69.5q11 48 47 73t91 25q76 0 125 -54l-44 -48q-30 38 -77 38q-48 0 -76 -31.5t-28 -95.5v-72h-78v74q0 119 -87 119q-44 0 -72.5 -36.5t-28.5 -104.5q0 -85 44 -140.5
t129 -55.5q17 0 27 2zM-22 575v67h523v-67h-523z" />
    <glyph glyph-name="dvV" horiz-adv-x="339" 
d="M308 465v-69q-22 9 -59 9q-52 0 -87.5 -34.5t-35.5 -88.5q0 -57 39 -92t99 -35q100 0 167 98l37 -51q-30 -47 -84 -79t-127 -32q-89 0 -149.5 51t-60.5 140q0 82 55.5 136.5t142.5 54.5q37 0 63 -8zM361 575h-383v67h383v-67z" />
    <glyph glyph-name="dvSH" horiz-adv-x="430" 
d="M157 256h-33l230 -256h-103l-221 253v70h99q83 0 129.5 38.5t46.5 106.5q0 54 -23.5 80.5t-63.5 26.5q-35 0 -52.5 -21.5t-17.5 -54.5q0 -31 15 -57h-77q-13 27 -13 64q0 57 39 97t106 40q75 0 120 -50.5t45 -122.5q0 -101 -67.5 -157.5t-158.5 -56.5z" />
    <glyph glyph-name="dvSS" horiz-adv-x="349" 
d="M153 511v-137q0 -70 33.5 -105t90.5 -35q62 0 111 50zM428 335l38 -44q-26 -50 -77 -85t-116 -36q-92 0 -144.5 49.5t-52.5 151.5v204h-98v67h393v-67h-211l259 -254z" />
    <glyph glyph-name="dvS" horiz-adv-x="390" 
d="M493 265h-197q-111 0 -170 9l184 -274h-95l-187 282v62h66q57 0 77.5 22.5t20.5 71.5v137h-214v67h434v-67h-142v-143q0 -63 -27 -99h250v-68z" />
    <glyph glyph-name="dvH" horiz-adv-x="530" 
d="M249 -99h80l140 -165h-97zM-22 642h575v-67h-113v-157h-240q-56 0 -56 -45q0 -26 14 -46.5t33 -29.5q42 15 97 15q82 0 126 -39.5t44 -94.5q0 -33 -11 -56h-77q14 19 14 52q0 32 -24.5 52.5t-72.5 20.5q-66 0 -103 -29t-37 -70q0 -50 43 -81.5t131 -31.5q61 0 125 18v-67
q-69 -17 -131 -17q-118 0 -182 54t-64 126q0 71 63 118q-67 44 -67 116q0 48 34 74t88 26h176v92h-385v67z" />
    <glyph glyph-name="dvLL" horiz-adv-x="798" 
d="M557 91q-106 0 -172 73q-49 -73 -147 -73q-85 0 -138.5 50.5t-53.5 134.5t54 136.5t136 52.5q103 0 169 -68q51 67 150 67q88 0 142.5 -51t54.5 -132q0 -85 -56 -137.5t-139 -52.5zM554 400q-23 0 -41.5 -8.5t-29.5 -18t-22.5 -31.5t-16 -34t-14 -42.5t-12.5 -39.5
q58 -69 136 -69q54 0 86.5 34t32.5 91q0 53 -32 85.5t-87 32.5zM239 157q27 0 47 10t33 31.5t20 39.5t17 50.5t16 47.5q-55 64 -132 64q-53 0 -84 -35t-31 -90q0 -54 31 -86t83 -32zM-22 575v67h842v-67h-842z" />
    <glyph glyph-name="dvK_SS" horiz-adv-x="531" 
d="M271 583q-40 0 -65 -25t-25 -60q0 -83 95 -103q84 29 84 104q0 32 -26.5 58t-62.5 26zM647 325h-315q-39 0 -71 7q-57 -17 -93 -49t-36 -78q0 -43 29.5 -68.5t74.5 -25.5q51 0 89 32.5t50 84.5h72v-228h-77v112q-14 -27 -55 -47t-85 -20q-80 0 -129.5 43.5t-49.5 114.5
q0 56 35.5 97.5t92.5 63.5q-75 49 -75 135q0 59 46.5 104t116.5 45q75 0 122.5 -42.5t47.5 -102.5q0 -73 -58 -114h268v-64z" />
    <glyph glyph-name="dvJ_NY" horiz-adv-x="513" 
d="M535 642v-67h-565v67h565zM708 402h-459q-91 0 -91 -55q0 -28 25.5 -38.5t94.5 -11.5q179 -2 179 -135q0 -67 -49 -106t-122 -39q-88 0 -144 51v-116h-77v226h71q17 -42 57.5 -70t88.5 -28q43 0 69 22t26 60q0 42 -32 56.5t-95 14.5q-173 0 -173 112q0 60 47 92t123 32
h461v-67z" />
    <glyph glyph-name="dvKx" horiz-adv-x="527" 
d="M154 13q22 0 38 -15.5t16 -37.5t-15.5 -37t-38.5 -15q-22 0 -37 15t-15 37t15 37.5t37 15.5zM425 575v-143q46 48 117 48q79 0 130 -48l-55 -54q-31 37 -84 37q-44 0 -76 -30.5t-32 -76.5v-308h-79v144q-44 -46 -116 -46q-82 0 -133 49.5t-51 130.5q0 87 57 139.5
t141 52.5q16 0 23 -3v-66q-5 1 -19 1q-54 0 -89 -33t-35 -90q0 -51 32 -84t83 -33q44 0 75.5 31t31.5 77v305h-368v67h563v-67h-116z" />
    <glyph glyph-name="dvKHx" horiz-adv-x="581" 
d="M84 47q22 0 38 -15.5t16 -37.5t-15.5 -37t-38.5 -15q-22 0 -37 15t-15 37t15 37.5t37 15.5zM535 282v-61q-27 -11 -54 -11q-58 0 -97.5 36.5t-39.5 95.5q0 63 45.5 106t113.5 43q81 0 134 -49t53 -143q0 -106 -78.5 -181.5t-208.5 -75.5q-125 0 -214 75.5t-124 191.5v65
h66q49 0 62 20.5t13 74.5v106h-228v67h627v-67h-320v-117q0 -73 -25 -109t-88 -39q-4 -2 -16 -2q21 -83 89.5 -140t162.5 -57q96 0 153 52t57 136q0 58 -28 93.5t-83 35.5q-41 0 -64 -24.5t-23 -59.5q0 -32 20 -52t50 -20q25 0 45 10z" />
    <glyph glyph-name="dvGx" horiz-adv-x="320" 
d="M129 83q22 0 38 -15.5t16 -37.5t-15.5 -37t-38.5 -15t-37.5 15t-14.5 37t15 37.5t37 15.5zM342 642v-67h-114v-234q0 -63 -32 -97.5t-93 -34.5q-41 0 -73 13v69q30 -14 61 -14q60 0 60 67v231h-173v67h364z" />
    <glyph glyph-name="dvJx" horiz-adv-x="423" 
d="M444 642v-67h-466v67h466zM154 -33q22 0 38 -15.5t16 -37.5t-15.5 -37t-38.5 -15q-22 0 -37 15t-15 37t15 37.5t37 15.5zM545 451v-67h-268q72 -43 72 -141q0 -81 -54.5 -130.5t-144.5 -49.5q-66 0 -120 22v72q54 -28 112 -28t93.5 31.5t35.5 87.5q0 67 -46.5 101.5
t-128.5 34.5v67h449z" />
    <glyph glyph-name="dvPHx" horiz-adv-x="606" 
d="M140 67q22 0 38 -15.5t16 -37.5t-15.5 -37t-38.5 -15q-22 0 -37 15t-15 37t15 37.5t37 15.5zM147 575v-201q0 -71 25.5 -100.5t80.5 -29.5q53 0 90.5 36.5t37.5 101.5v193h-234zM460 575v-138q45 47 122 47q116 0 170 -98l-60 -46q-35 80 -116 80q-49 0 -82.5 -31
t-33.5 -79v-310h-79v238q-46 -58 -133 -59q-90 0 -135 45t-45 147v204h-90v67h660v-67h-178z" />
    <glyph glyph-name="dvReph" 
d="M-63 805q-34 0 -54 -21t-20 -56q0 -55 50 -97h-85q-45 36 -45 106q0 58 40 98t106 40q42 0 70 -14v-70q-30 14 -62 14z" />
    <glyph glyph-name="dvEyelash" horiz-adv-x="194" 
d="M11 375q49 -35 123 -35q75 0 150 43l19 -66q-80 -42 -167 -42q-76 0 -125 28v72zM216 575h-238v67h238v-67z" />
    <glyph glyph-name="dvRashtrasign" 
d="M-193 0h119l131 -165h-95l-95 126l-96 -126h-95z" />
    <glyph glyph-name="dvK_RA" horiz-adv-x="778" 
d="M800 575h-367v-142q45 47 116 47q82 0 133 -50t51 -131q0 -87 -57 -139t-141 -52q-13 0 -23 2v67q10 -2 19 -2q54 0 89 33t35 91q0 51 -32 83.5t-83 32.5q-44 0 -75.5 -30.5t-31.5 -76.5v-308h-79v147l-181 -192h-95l140 145q-73 5 -119 53.5t-46 124.5q0 87 57 139.5
t142 52.5q14 0 23 -3v-66q-5 1 -20 1q-54 0 -88.5 -32.5t-34.5 -90.5q0 -51 31.5 -84t82.5 -33q44 0 76 31t32 77v305h-376v67h822v-67z" />
    <glyph glyph-name="dvKH_RA" horiz-adv-x="783" 
d="M611 450v125h-335v-116q0 -75 -25.5 -110.5t-90.5 -37.5l-12 -1q21 -82 88.5 -138t161.5 -56q96 0 156.5 52t60.5 135q0 57 -30 91t-85 34q-41 0 -65 -24t-24 -59q0 -32 19.5 -51.5t50.5 -19.5q22 0 45 10v-61q-27 -11 -54 -11q-57 0 -96.5 36.5t-39.5 95.5
q0 62 45.5 104.5t111.5 42.5q71 0 118 -41zM805 642v-67h-115v-575h-79v141q-51 -53 -308 -250h-118l202 157q-123 4 -206.5 73.5t-123.5 189.5v65h66q49 0 62 20t13 75v104h-220v67h827z" />
    <glyph glyph-name="dvG_RA" horiz-adv-x="581" 
d="M-22 642h625v-67h-116v-575h-77v194l-254 -214h-110l364 313v282h-174v-234q0 -63 -32.5 -97.5t-93.5 -34.5q-41 0 -73 13v69q30 -14 61 -14q60 0 60 67v231h-180v67z" />
    <glyph glyph-name="dvGH_RA" horiz-adv-x="647" 
d="M476 330v245h-259q-57 -31 -57 -89q0 -79 126 -79h48v-68h-59q-56 0 -88.5 -24.5t-32.5 -68.5q0 -43 35.5 -65t85.5 -22q84 0 142.5 51t58.5 120zM669 642v-67h-116v-575h-77v183l-259 -228h-106l160 141q-79 -5 -137 34.5t-58 115.5q0 52 31 83.5t85 42.5
q-45 5 -77.5 33.5t-32.5 78.5q0 55 42 91h-146v67h691z" />
    <glyph glyph-name="dvNG_RA" horiz-adv-x="574" 
d="M511 401q23 0 39 -16t16 -39t-16 -38t-39 -15t-38.5 15t-15.5 38t15.5 39t38.5 16zM-22 642h619v-67h-195v-151h-174q-35 0 -59.5 -15t-24.5 -48q0 -34 30 -49.5t106 -19.5q179 -5 179 -138q0 -53 -33.5 -91.5t-92.5 -54.5l113 -148h-95l-93 129l-94 -129h-95l111 145
q-66 12 -113 38v77q87 -55 189 -55q57 0 90 23t33 65q0 37 -30 54t-100 20q-183 8 -183 132q0 64 44.5 98t114.5 34h99v84h-346v67z" />
    <glyph glyph-name="dvC_RA" horiz-adv-x="638" 
d="M660 642v-67h-116v-575h-78v178l-263 -223h-110l171 146q-74 5 -121 48t-47 113q0 87 78 125h-142v67h341v-67q-109 0 -154 -34.5t-45 -86.5q0 -49 32.5 -75.5t85.5 -26.5q78 0 126 47t48 102v262h-488v67h682z" />
    <glyph glyph-name="dvCH_RA" horiz-adv-x="638" 
d="M435 481v94h-205q-62 -34 -62 -102q0 -42 29.5 -67t71.5 -25h30v-67h-38q-53 0 -81.5 -23.5t-28.5 -64.5q0 -48 43 -76t109 -28q89 0 145 49.5t56 136.5q0 51 -28.5 80.5t-83.5 29.5q-27 0 -43 -7v65q17 7 55 7q11 0 31 -2zM660 575h-153v-117q76 -43 76 -149
q0 -88 -53 -152.5t-140 -88.5l115 -150h-95l-93 128l-94 -128h-95l110 144q-76 14 -121 56.5t-45 106.5q0 53 31.5 87.5t81.5 39.5q-36 6 -65.5 38.5t-29.5 82.5q0 64 45 102h-157v67h682v-67z" />
    <glyph glyph-name="dvJ_RA" horiz-adv-x="657" 
d="M-22 642h701v-67h-115v-575h-78v119l-257 -219h-109l366 311v173h-198q68 -40 68 -122q0 -73 -54 -121t-145 -48q-65 0 -119 22v72q54 -28 111 -28q59 0 94 28t35 79q0 118 -174 118v67h382v124h-508v67z" />
    <glyph glyph-name="dvJH_RA" horiz-adv-x="843" 
d="M277 317h394v258h-254v-141l-2 1v-1h-160q-92 0 -92 -60q0 -29 25.5 -40.5t88.5 -16.5zM865 642v-67h-116v-575h-78v106l-245 -233h-107l352 324v56h-240q30 -36 30 -86q0 -66 -46.5 -109t-120.5 -43q-89 0 -145 50v-113h-76v226h70q17 -42 58.5 -70t88.5 -28
q42 0 67.5 23t25.5 62q0 78 -119 86q-86 5 -133.5 31t-47.5 90q0 61 46 95t121 34h88v74h-360v67h887z" />
    <glyph glyph-name="dvNY_RA" horiz-adv-x="687" 
d="M709 642v-67h-116v-575h-78v122l-245 -222h-108l353 313v61h-125q-8 -77 -65 -126t-145 -49q-86 0 -152 35v74q67 -41 146 -41q66 0 101.5 35t35.5 94q0 54 -32.5 87t-89.5 33q-49 0 -79 -14v67q33 13 80 13q82 0 133 -37t64 -104h128v234h-537v67h731z" />
    <glyph glyph-name="dvTT_RA" horiz-adv-x="496" 
d="M407 575v-186q-35 5 -71 5q-89 0 -143.5 -40.5t-54.5 -116.5q0 -71 48.5 -110t128.5 -39q74 0 142 38v-71q-37 -21 -98 -30l110 -142h-95l-92 128l-95 -128h-95l118 153q-71 22 -112 74t-41 128q0 97 69 158t178 62q16 0 24 -1v118h-350v67h540v-67h-111z" />
    <glyph glyph-name="dvTTH_RA" horiz-adv-x="564" 
d="M429 259q0 62 -40 95t-107 33q-60 0 -103.5 -32t-43.5 -95q0 -60 40 -97t107 -37q66 0 106.5 37t40.5 96zM586 575h-244v-129q75 -14 121 -62.5t46 -124.5q0 -69 -40 -118.5t-109 -68.5l115 -149h-95l-93 128l-94 -128h-95l112 147q-71 18 -113 68.5t-42 121.5
q0 88 61.5 137t147.5 54v124h-286v67h608v-67z" />
    <glyph glyph-name="dvDD_RA" horiz-adv-x="522" 
d="M400 424h-174q-36 0 -60 -15t-24 -48q0 -35 25 -53.5t67 -18.5l76 4q73 -1 110 -39.5t37 -99.5q-1 -53 -34 -91.5t-93 -54.5l113 -148h-94l-94 129l-93 -129h-95l110 146q-65 11 -113 37v77q89 -55 190 -55q57 0 90 23t33 65q0 35 -22.5 54t-62.5 20q-1 0 -37.5 -3
t-38.5 -3q-65 2 -109 38t-44 100t45 98t115 34h99v84h-344v67h566v-67h-144v-151z" />
    <glyph glyph-name="dvDDH_RA" horiz-adv-x="557" 
d="M432 575v-183q-62 10 -102 10q-91 0 -143.5 -44.5t-52.5 -114.5t46.5 -113.5t120.5 -43.5q53 0 88 23.5t35 64.5q0 27 -20 44t-53 17q-47 0 -85 -23v65q42 21 94 21q67 0 104 -34.5t37 -88.5q0 -52 -35 -91.5t-96 -54.5l112 -147h-95l-93 128l-93 -128h-95l114 149
q-75 21 -120.5 77.5t-45.5 135.5q0 96 69.5 160t184.5 65q22 0 45 -3v109h-375v67h601v-67h-147z" />
    <glyph glyph-name="dvNN_RA" horiz-adv-x="753" 
d="M341 354v221h-183v-221q0 -108 89 -108q94 0 94 108zM775 642v-67h-116v-575h-78v194l-243 -215h-114l357 312v284h-162v-219q0 -86 -44.5 -131.5t-128.5 -45.5q-166 0 -166 178v218h-102v67h797z" />
    <glyph glyph-name="dvT_RA" horiz-adv-x="565" 
d="M587 642v-67h-116v-575h-79v223l-276 -172l-42 58l295 184q-24 46 -66.5 74.5t-98.5 29.5q-75 0 -149 -40v73q59 35 150 35q118 0 187 -89v199h-414v67h609z" />
    <glyph glyph-name="dvTH_RA" horiz-adv-x="643" 
d="M365 507q0 -82 -62.5 -132.5t-178.5 -78.5q28 -118 161 -118q76 0 131 51t55 146v267h194v-67h-116v-575h-78v194l-267 -239h-107l176 157q-96 3 -163 61t-78 169q132 28 194 66t62 98q0 34 -16.5 55t-49.5 21t-50.5 -19.5t-17.5 -49.5q0 -20 13 -56h-77q-12 34 -12 64
q0 52 39.5 89.5t104.5 37.5q67 0 105 -40.5t38 -100.5z" />
    <glyph glyph-name="dvD_RA" horiz-adv-x="555" 
d="M-22 642h599v-67h-120v-167h-176q-68 0 -107 -35t-39 -98q0 -65 35 -102t94 -37t94.5 33t37.5 85h75v-264h-78v133l-192 -179h-103l139 129q-86 8 -136 63.5t-50 135.5q0 89 59 145.5t165 56.5h104v101h-401v67z" />
    <glyph glyph-name="dvDH_RA" horiz-adv-x="640" 
d="M662 642v-67h-116v-575h-78v166l-254 -211h-111l155 129q-87 4 -138 44t-51 105q0 53 36.5 88t90.5 40q-123 12 -123 113q0 69 62 101h-157v67h315v-67h-1q-66 0 -103 -28t-37 -72q0 -81 136 -81h51v-67h-59q-57 0 -94.5 -25t-37.5 -67q0 -41 34.5 -63.5t97.5 -22.5
q84 0 136 51.5t52 115.5v326h194z" />
    <glyph glyph-name="dvN_RA" horiz-adv-x="504" 
d="M-22 642h548v-67h-115v-575h-79v280l-182 -206h-96l278 310h-195q-18 0 -25.5 -9t-7.5 -30q0 -29 13 -74h-65q-29 54 -29 104q0 75 87 75h222v125h-354v67z" />
    <glyph glyph-name="dvP_RA" horiz-adv-x="558" 
d="M386 399v176h-234v-183q0 -71 26 -102.5t80 -31.5q53 0 90.5 38t37.5 103zM580 642v-67h-115v-575h-79v255l-243 -255h-102l184 196q-152 14 -152 197v182h-95v67h602z" />
    <glyph glyph-name="dvPH_RA" horiz-adv-x="807" 
d="M386 399v176h-234v-183q0 -71 26 -102.5t80 -31.5q53 0 90.5 38t37.5 103zM829 575h-364v-137q45 47 118 47q81 0 131.5 -50t50.5 -130q0 -89 -57 -140.5t-141 -51.5q-15 0 -24 3v66q12 -2 20 -2q54 0 88.5 33t34.5 92q0 50 -31.5 82.5t-80.5 32.5q-46 0 -77.5 -31
t-31.5 -78v-311h-79v255l-243 -255h-102l184 196q-152 14 -152 197v182h-95v67h851v-67z" />
    <glyph glyph-name="dvB_RA" horiz-adv-x="624" 
d="M380 173l-212 206q-29 -37 -29 -93q0 -62 39.5 -101.5t100.5 -39.5q59 0 101 28zM646 642v-67h-116v-575h-78v160l-248 -225h-108l165 149q-83 4 -140.5 60.5t-57.5 142.5q0 91 61.5 149.5t157.5 58.5q40 0 83 -10v-69q-42 13 -78 13q-46 0 -78 -17l209 -205q34 43 34 99
v269h-474v67h668z" />
    <glyph glyph-name="dvBH_RA" horiz-adv-x="565" 
d="M393 642h194v-67h-116v-575h-78v160l-226 -200h-110l336 297v68h-196v-137h-69l-25 56q-27 58 -27 89q0 21 12 35.5t31 19.5v126q0 34 -10.5 49.5t-35.5 15.5q-33 0 -57 -13v65q30 15 70 15q111 0 111 -119v-136h196v251z" />
    <glyph glyph-name="dvM_RA" horiz-adv-x="578" 
d="M197 391h209v184h-209v-184zM-22 642h622v-67h-116v-575h-78v172l-232 -212h-112l344 313v49h-209v-135h-69l-25 56q-27 64 -27 90q0 21 11.5 35.5t30.5 19.5v187h-140v67z" />
    <glyph glyph-name="dvY_RA" horiz-adv-x="628" 
d="M456 192l-262 -237h-113l194 176q-86 5 -146.5 67t-74.5 170q80 12 121 43.5t41 74.5q0 53 -30 89h-208v67h672v-67h-116v-575h-78v192zM302 194q69 0 111.5 38.5t42.5 103.5v239h-186q24 -39 24 -93q0 -117 -148 -163q14 -56 56 -90.5t100 -34.5z" />
    <glyph glyph-name="dvV_RA" horiz-adv-x="584" 
d="M606 642v-67h-116v-575h-78v161l-240 -226h-110l169 158q-74 6 -124 56.5t-50 132.5t55.5 136.5t141.5 54.5q37 0 64 -8v-69q-26 9 -59 9q-53 0 -88 -33.5t-35 -88.5q0 -58 35.5 -93t88.5 -35q70 0 111 47t41 111v262h-434v67h628z" />
    <glyph glyph-name="dvSH_RA" horiz-adv-x="696" 
d="M265 583q-39 0 -63 -24.5t-24 -60.5q0 -68 91 -120q34 21 57.5 52t23.5 65q0 35 -23 61.5t-62 26.5zM522 642h196v-67h-116v-575h-80v212l-256 -215l-62 45l235 195q-95 28 -162 58l-184 -131l-62 48l175 122q-106 69 -106 165q0 59 44.5 104t116.5 45q77 0 122 -43.5
t45 -107.5q0 -84 -93 -151q82 -33 187 -58v354z" />
    <glyph glyph-name="dvS_RA" horiz-adv-x="740" 
d="M294 575v-143q0 -11 -1 -16q56 29 116 29q94 0 159 -65v195h-274zM762 642v-67h-116v-575h-78v269l-156 -147h-104l229 202q-58 54 -128 54q-75 0 -150 -55q-36 -39 -104 -42h-11l181 -281h-93l-180 282v62h66q57 0 77 22.5t20 71.5v137h-237v67h784z" />
    <glyph glyph-name="dvH_RA" horiz-adv-x="586" 
d="M476 418h-270q-56 0 -56 -45q0 -49 44 -74q50 21 117 21q102 0 166 -53.5t64 -147.5q0 -39 -10 -73h-74q11 27 11 72q0 49 -22 80l-133 -152h-93l173 194q-35 15 -84 15q-80 0 -124 -42.5t-44 -109.5q0 -73 52.5 -118.5t150.5 -45.5q59 0 109 15v-65q-60 -14 -115 -14
q-123 0 -199 64t-76 166q0 103 75 162q-67 44 -67 116q0 48 34.5 74t88.5 26h204v92h-420v67h631v-67h-133v-157z" />
    <glyph glyph-name="dvKx_RA" horiz-adv-x="778" 
d="M284 -26q22 0 38 -15.5t16 -37.5t-15.5 -37t-38.5 -15q-22 0 -37 14.5t-15 37.5q0 22 15 37.5t37 15.5zM800 575h-367v-142q45 47 116 47q82 0 133 -50t51 -131q0 -87 -57 -139t-141 -52q-13 0 -23 2v67q10 -2 19 -2q54 0 89 33t35 91q0 51 -32 83.5t-83 32.5
q-44 0 -75.5 -30.5t-31.5 -76.5v-308h-79v147l-181 -192h-95l140 145q-73 5 -119 53.5t-46 124.5q0 87 57 139.5t142 52.5q14 0 23 -3v-66q-5 1 -20 1q-54 0 -88.5 -32.5t-34.5 -90.5q0 -51 31.5 -84t82.5 -33q44 0 76 31t32 77v305h-376v67h822v-67z" />
    <glyph glyph-name="dvKHx_RA" horiz-adv-x="783" 
d="M528 -28q22 0 38 -15.5t16 -37.5t-15.5 -37t-38.5 -15q-22 0 -37 14.5t-15 37.5q0 22 15 37.5t37 15.5zM611 450v125h-335v-116q0 -75 -25.5 -110.5t-90.5 -37.5l-12 -1q21 -82 88.5 -138t161.5 -56q96 0 156.5 52t60.5 135q0 57 -30 91t-85 34q-41 0 -65 -24t-24 -59
q0 -32 19.5 -51.5t50.5 -19.5q22 0 45 10v-61q-27 -11 -54 -11q-57 0 -96.5 36.5t-39.5 95.5q0 62 45.5 104.5t111.5 42.5q71 0 118 -41zM805 642v-67h-115v-575h-79v141q-51 -53 -308 -250h-118l202 157q-123 4 -206.5 73.5t-123.5 189.5v65h66q49 0 62 20t13 75v104h-220
v67h827z" />
    <glyph glyph-name="dvGx_RA" horiz-adv-x="581" 
d="M309 -13q22 0 38 -15.5t16 -37.5t-15.5 -37t-38.5 -15t-37.5 15t-14.5 37t15 37.5t37 15.5zM-22 642h625v-67h-116v-575h-77v194l-254 -214h-110l364 313v282h-174v-234q0 -63 -32.5 -97.5t-93.5 -34.5q-41 0 -73 13v69q30 -14 61 -14q60 0 60 67v231h-180v67z" />
    <glyph glyph-name="dvJx_RA" horiz-adv-x="657" 
d="M404 -67q22 0 38 -15.5t16 -37.5t-15.5 -37t-38.5 -15q-22 0 -37 15t-15 37t15 37.5t37 15.5zM-22 642h701v-67h-115v-575h-78v119l-257 -219h-109l366 311v173h-198q68 -40 68 -122q0 -73 -54 -121t-145 -48q-65 0 -119 22v72q54 -28 111 -28q59 0 94 28t35 79
q0 118 -174 118v67h382v124h-508v67z" />
    <glyph glyph-name="dvPHx_RA" horiz-adv-x="807" 
d="M268 -12q22 0 38 -15.5t16 -37.5t-15.5 -37t-38.5 -15q-22 0 -37 14.5t-15 37.5q0 22 15 37.5t37 15.5zM386 399v176h-234v-183q0 -71 26 -102.5t80 -31.5q53 0 90.5 38t37.5 103zM829 575h-364v-137q45 47 118 47q81 0 131.5 -50t50.5 -130q0 -89 -57 -140.5t-141 -51.5
q-15 0 -24 3v66q12 -2 20 -2q54 0 88.5 33t34.5 92q0 50 -31.5 82.5t-80.5 32.5q-46 0 -77.5 -31t-31.5 -78v-311h-79v255l-243 -255h-102l184 196q-152 14 -152 197v182h-95v67h851v-67z" />
    <glyph glyph-name="dvK_R" horiz-adv-x="533" 
d="M433 575v-142q45 47 116 47q79 0 130 -48l-54 -54q-32 37 -85 37q-44 0 -75.5 -30.5t-31.5 -76.5v-308h-79v147l-181 -192h-95l140 145q-73 5 -119 53.5t-46 124.5q0 87 57 139.5t142 52.5q14 0 23 -3v-66q-5 1 -20 1q-54 0 -88.5 -32.5t-34.5 -90.5q0 -51 31.5 -84
t82.5 -33q44 0 76 31t32 77v305h-376v67h577v-67h-122z" />
    <glyph glyph-name="dvKH_R" horiz-adv-x="570" 
d="M526 284v-61q-27 -11 -54 -11q-57 0 -96.5 36.5t-39.5 95.5q0 62 45.5 104.5t111.5 42.5q87 0 138 -51.5t51 -133.5q0 -115 -109 -203l-268 -212h-118l202 157q-125 4 -208.5 73.5t-123.5 189.5v65h66q49 0 62 20t13 75v104h-220v67h614v-67h-316v-116
q0 -75 -25.5 -110.5t-90.5 -37.5l-12 -1q21 -82 88.5 -138t161.5 -56t152.5 52t58.5 135q0 58 -27.5 91.5t-81.5 33.5q-41 0 -65 -24t-24 -59q0 -32 19.5 -51.5t50.5 -19.5q22 0 45 10z" />
    <glyph glyph-name="dvG_R" horiz-adv-x="379" 
d="M37 222v69q30 -14 61 -14q60 0 60 67v231h-180v67h423v-67h-165v-234q0 -63 -32.5 -97.5t-93.5 -34.5q-41 0 -73 13zM455 332l38 -66l-337 -286h-110z" />
    <glyph glyph-name="dvGH_R" horiz-adv-x="409" 
d="M494 310l41 -83l-314 -272h-110l160 141q-79 -5 -137 34.5t-58 115.5q0 52 31 83.5t85 42.5q-45 5 -77.5 33.5t-32.5 78.5q0 55 42 91h-146v67h453v-67h-214q-57 -31 -57 -89q0 -79 126 -79h48v-68h-59q-56 0 -88.5 -24.5t-32.5 -68.5q0 -43 35.5 -65t85.5 -22
q74 0 133 46.5t86 104.5z" />
    <glyph glyph-name="dvC_R" horiz-adv-x="417" 
d="M439 642v-67h-461v67h461zM495 302l39 -71l-327 -276h-112l171 146q-74 4 -122 47t-48 114q0 87 78 125h-142v67h341v-67q-109 0 -154 -34.5t-45 -86.5q0 -49 32.5 -75.5t85.5 -26.5q62 0 116 40t87 98z" />
    <glyph glyph-name="dvJ_R" horiz-adv-x="472" 
d="M494 642v-67h-516v67h516zM120 -100l417 356l42 -57l-350 -299h-109zM104 451h539v-67h-355q68 -40 68 -122q0 -73 -54 -121t-145 -48q-65 0 -119 22v72q54 -28 111 -28q59 0 94 28t35 79q0 118 -174 118v67z" />
    <glyph glyph-name="dvJH_R" horiz-adv-x="607" 
d="M713 253h-282q30 -36 30 -86q0 -66 -46.5 -109t-120.5 -43q-89 0 -145 50v-113h-76v226h70q17 -42 58.5 -70t88.5 -28q42 0 67.5 23t25.5 62q0 78 -119 86q-86 5 -133.5 31t-47.5 90q0 61 46 95t121 34h88v74h-360v67h652v-67h-213v-141l-2 1v-1h-160q-92 0 -92 -60
q0 -29 25.5 -40.5t88.5 -16.5h436v-64zM705 228l45 -58l-324 -297h-107z" />
    <glyph glyph-name="dvNY_R" horiz-adv-x="504" 
d="M526 642v-67h-548v67h548zM573 274h-183q-8 -77 -65 -126t-145 -49q-86 0 -152 35v74q67 -41 146 -41q66 0 101.5 35t35.5 94q0 54 -32.5 87t-89.5 33q-49 0 -79 -14v67q33 13 80 13q82 0 133 -37t64 -104h186v-67zM572 261l39 -55l-341 -306h-108z" />
    <glyph glyph-name="dvTT_R" horiz-adv-x="496" 
d="M244 -185h80l140 -165h-97zM407 575v-186q-35 5 -71 5q-89 0 -143.5 -40.5t-54.5 -116.5q0 -71 48.5 -110t128.5 -39q74 0 142 38v-71q-37 -21 -98 -30l110 -142h-95l-92 128l-95 -128h-95l118 153q-71 22 -112 74t-41 128q0 97 69 158t178 62q16 0 24 -1v118h-350v67
h540v-67h-111z" />
    <glyph glyph-name="dvTTH_R" horiz-adv-x="564" 
d="M251 -145h80l140 -165h-97zM429 259q0 62 -40 95t-107 33q-60 0 -103.5 -32t-43.5 -95q0 -60 40 -97t107 -37q66 0 106.5 37t40.5 96zM586 575h-244v-129q75 -14 121 -62.5t46 -124.5q0 -69 -40 -118.5t-109 -68.5l115 -149h-95l-93 128l-94 -128h-95l112 147
q-71 18 -113 68.5t-42 121.5q0 88 61.5 137t147.5 54v124h-286v67h608v-67z" />
    <glyph glyph-name="dvDD_R" horiz-adv-x="522" 
d="M214 -208h80l140 -165h-97zM400 424h-174q-36 0 -60 -15t-24 -48q0 -35 25 -53.5t67 -18.5l76 4q73 -1 110 -39.5t37 -99.5q-1 -53 -34 -91.5t-93 -54.5l113 -148h-94l-94 129l-93 -129h-95l110 146q-65 11 -113 37v77q89 -55 190 -55q57 0 90 23t33 65q0 35 -22.5 54
t-62.5 20q-1 0 -37.5 -3t-38.5 -3q-65 2 -109 38t-44 100t45 98t115 34h99v84h-344v67h566v-67h-144v-151z" />
    <glyph glyph-name="dvDDH_R" horiz-adv-x="557" 
d="M255 -186h80l140 -165h-97zM432 575v-183q-62 10 -102 10q-91 0 -143.5 -44.5t-52.5 -114.5t46.5 -113.5t120.5 -43.5q53 0 88 23.5t35 64.5q0 27 -20 44t-53 17q-47 0 -85 -23v65q42 21 94 21q67 0 104 -34.5t37 -88.5q0 -52 -35 -91.5t-96 -54.5l112 -147h-95l-93 128
l-93 -128h-95l114 149q-75 21 -120.5 77.5t-45.5 135.5q0 96 69.5 160t184.5 65q22 0 45 -3v109h-375v67h601v-67h-147z" />
    <glyph glyph-name="dvNN_R" horiz-adv-x="503" 
d="M148 575v-221q0 -108 89 -108q94 0 94 108v221h-183zM409 575v-219q0 -86 -44.5 -131.5t-128.5 -45.5q-166 0 -166 178v218h-102v67h557v-67h-116zM591 309l36 -67l-299 -263h-114z" />
    <glyph glyph-name="dvT_R" horiz-adv-x="357" 
d="M379 642v-67h-401v67h401zM443 260l1 -4l-328 -205l-42 58l293 181q-54 104 -163 107q-75 0 -149 -40v73q59 35 150 35q89 0 154.5 -54.5t83.5 -150.5z" />
    <glyph glyph-name="dvTH_R" horiz-adv-x="436" 
d="M365 507q0 -82 -62.5 -132.5t-178.5 -78.5q28 -118 161 -118q130 0 212 128l53 -55l-338 -296h-105l176 157q-99 1 -169.5 59t-81.5 171q132 28 194 66t62 98q0 34 -16.5 55t-49.5 21t-50.5 -19.5t-17.5 -49.5q0 -20 13 -56h-77q-12 34 -12 64q0 52 39.5 89.5t104.5 37.5
q67 0 105 -40.5t38 -100.5z" />
    <glyph glyph-name="dvD_R" horiz-adv-x="555" 
d="M499 -289h-97l-123 165h80zM-22 642h599v-67h-120v-167h-176q-68 0 -107 -35t-39 -98q0 -65 35 -102t94 -37t94.5 33t37.5 85h75v-264h-78v133l-192 -179h-103l139 129q-86 8 -136 63.5t-50 135.5q0 89 59 145.5t165 56.5h104v101h-401v67z" />
    <glyph glyph-name="dvDH_R" horiz-adv-x="442" 
d="M516 299l50 -58l-345 -286h-114l160 129q-91 2 -144.5 41.5t-53.5 107.5q0 53 36.5 88t90.5 40q-123 12 -123 113q0 69 62 101h-157v67h315v-67h-1q-66 0 -103 -28t-37 -72q0 -81 136 -81h51v-67h-59q-57 0 -94.5 -25t-37.5 -67q0 -41 34.5 -63.5t97.5 -22.5
q121 0 236 150z" />
    <glyph glyph-name="dvN_R" horiz-adv-x="279" 
d="M301 642v-67h-323v67h323zM436 388l7 -9l-293 -305h-96l299 310h-216q-18 0 -25.5 -9t-7.5 -30q0 -29 13 -74h-65q-29 54 -29 104q0 75 87 75h326v-62z" />
    <glyph glyph-name="dvP_R" horiz-adv-x="335" 
d="M416 378l39 -52l-312 -326h-102l185 196q-153 13 -153 197v182h-95v67h379v-67h-205v-183q0 -71 26 -102.5t80 -31.5q87 0 158 120z" />
    <glyph glyph-name="dvPH_R" horiz-adv-x="603" 
d="M152 575v-183q0 -71 26 -102.5t80 -31.5q53 0 90.5 38t37.5 103v176h-234zM465 575v-137q45 47 122 47q116 0 170 -99l-60 -46q-35 80 -116 80q-49 0 -82.5 -30.5t-33.5 -78.5v-311h-79v255l-243 -255h-102l184 196q-152 14 -152 197v182h-95v67h647v-67h-160z" />
    <glyph glyph-name="dvB_R" horiz-adv-x="374" 
d="M396 642v-67h-418v67h418zM378 174l-210 205q-29 -37 -29 -93q0 -62 39.5 -101.5t100.5 -39.5q55 0 99 29zM457 269l42 -68l-295 -266h-108l166 149q-84 3 -141.5 59.5t-57.5 143.5q0 91 61.5 149.5t157.5 58.5q40 0 83 -10v-69q-42 13 -78 13q-46 0 -78 -17l208 -204
q22 26 40 61z" />
    <glyph glyph-name="dvBH_R" horiz-adv-x="370" 
d="M197 391h302v-66l-326 -365h-108l340 365h-208v-137h-69l-25 56q-27 58 -27 89q0 21 12 35.5t31 19.5v126q0 34 -10.5 49.5t-35.5 15.5q-33 0 -57 -13v65q30 15 70 15q111 0 111 -119v-136z" />
    <glyph glyph-name="dvM_R" horiz-adv-x="384" 
d="M197 391h309v-69l-321 -362h-110l332 362h-210v-135h-69l-25 56q-27 64 -27 90q0 21 11.5 35.5t30.5 19.5v187h-140v67h428v-67h-209v-184z" />
    <glyph glyph-name="dvY_R" horiz-adv-x="383" 
d="M405 575h-135q24 -39 24 -93q0 -117 -148 -163q14 -56 56 -90.5t100 -34.5q94 0 168 103l36 -59l-312 -283h-113l194 176q-86 5 -146.5 67t-74.5 170q80 12 121 43.5t41 74.5q0 53 -30 89h-208v67h427v-67z" />
    <glyph glyph-name="dvV_R" horiz-adv-x="360" 
d="M318 465v-69q-26 9 -59 9q-53 0 -88 -33.5t-35 -88.5q0 -58 35.5 -93t88.5 -35q54 0 97 31t86 92l44 -58l-308 -285h-109l171 158q-79 3 -131.5 54t-52.5 135q0 82 55.5 136.5t141.5 54.5q37 0 64 -8zM382 575h-404v67h404v-67z" />
    <glyph glyph-name="dvS_R" horiz-adv-x="528" 
d="M294 575v-143q0 -11 -1 -16q56 29 116 29q131 0 212 -129l-43 -43l-2 3l-164 -154h-104l228 202q-56 54 -127 54q-75 0 -150 -55q-36 -39 -104 -42h-11l181 -281h-93l-180 282v62h66q57 0 77 22.5t20 71.5v137h-237v67h732v-67h-416z" />
    <glyph glyph-name="dvKx_R" horiz-adv-x="533" 
d="M287 -75q22 0 38 -15.5t16 -37.5t-15.5 -37t-38.5 -15t-37.5 15t-14.5 37t15 37.5t37 15.5zM433 575v-142q45 47 116 47q79 0 130 -48l-54 -54q-32 37 -85 37q-44 0 -75.5 -30.5t-31.5 -76.5v-308h-79v147l-181 -192h-95l140 145q-73 5 -119 53.5t-46 124.5
q0 87 57 139.5t142 52.5q14 0 23 -3v-66q-5 1 -20 1q-54 0 -88.5 -32.5t-34.5 -90.5q0 -51 31.5 -84t82.5 -33q44 0 76 31t32 77v305h-376v67h577v-67h-122z" />
    <glyph glyph-name="dvKHx_R" horiz-adv-x="570" 
d="M535 -71q22 0 38 -15.5t16 -37.5t-15.5 -37t-38.5 -15t-37.5 15t-14.5 37t15 37.5t37 15.5zM526 284v-61q-27 -11 -54 -11q-57 0 -96.5 36.5t-39.5 95.5q0 62 45.5 104.5t111.5 42.5q87 0 138 -51.5t51 -133.5q0 -115 -109 -203l-268 -212h-118l202 157
q-125 4 -208.5 73.5t-123.5 189.5v65h66q49 0 62 20t13 75v104h-220v67h614v-67h-316v-116q0 -75 -25.5 -110.5t-90.5 -37.5l-12 -1q21 -82 88.5 -138t161.5 -56t152.5 52t58.5 135q0 58 -27.5 91.5t-81.5 33.5q-41 0 -65 -24t-24 -59q0 -32 19.5 -51.5t50.5 -19.5
q22 0 45 10z" />
    <glyph glyph-name="dvGx_R" horiz-adv-x="379" 
d="M37 222v69q30 -14 61 -14q60 0 60 67v231h-180v67h423v-67h-165v-234q0 -63 -32.5 -97.5t-93.5 -34.5q-41 0 -73 13zM455 332l38 -66l-337 -286h-110zM389 32q22 0 38 -15.5t16 -37.5t-15.5 -37t-38.5 -15t-37.5 14.5t-14.5 37.5q0 22 15 37.5t37 15.5z" />
    <glyph glyph-name="dvJx_R" horiz-adv-x="472" 
d="M494 642v-67h-516v67h516zM512 -7q22 0 38 -15.5t16 -37.5t-15.5 -37t-38.5 -15q-22 0 -37 15t-15 37t15 37.5t37 15.5zM120 -100l417 356l42 -57l-350 -299h-109zM104 451h539v-67h-355q68 -40 68 -122q0 -73 -54 -121t-145 -48q-65 0 -119 22v72q54 -28 111 -28
q59 0 94 28t35 79q0 118 -174 118v67z" />
    <glyph glyph-name="dvPHx_R" horiz-adv-x="603" 
d="M261 -54q22 0 38 -15.5t16 -37.5t-15.5 -37t-38.5 -15t-37.5 14.5t-14.5 37.5q0 22 15 37.5t37 15.5zM152 575v-183q0 -71 26 -102.5t80 -31.5q53 0 90.5 38t37.5 103v176h-234zM465 575v-137q45 47 122 47q116 0 170 -99l-60 -46q-35 80 -116 80q-49 0 -82.5 -30.5
t-33.5 -78.5v-311h-79v255l-243 -255h-102l184 196q-152 14 -152 197v182h-95v67h647v-67h-160z" />
    <glyph glyph-name="dvK_KA" horiz-adv-x="1284" 
d="M859 270v305h-434v-143q46 48 117 48q64 0 113 -34q45 24 102 24q15 0 23 -3v-66q-5 1 -19 1q-54 0 -89 -33t-35 -90q0 -51 32 -84t83 -33q44 0 75.5 31t31.5 77zM1306 575h-368v-143q46 48 117 48q82 0 133 -50t51 -131q0 -87 -57 -139t-142 -52q-11 0 -23 2v67
q10 -2 20 -2q53 0 88 33t35 91q0 51 -31.5 83.5t-82.5 32.5q-44 0 -76 -30.5t-32 -76.5v-308h-79v144q-44 -46 -116 -46q-82 0 -133 49.5t-51 130.5q0 69 38 118q-27 19 -64 19q-44 0 -76 -30.5t-32 -76.5v-308h-79v144q-44 -46 -116 -46q-82 0 -133 49.5t-51 130.5
q0 87 57 139.5t141 52.5q16 0 23 -3v-66q-5 1 -19 1q-54 0 -89 -33t-35 -90q0 -51 32 -84t83 -33q44 0 75.5 31t31.5 77v305h-368v67h1328v-67z" />
    <glyph glyph-name="dvKx_KxA" horiz-adv-x="1284" 
d="M154 13q22 0 38 -15.5t16 -37.5t-15.5 -37t-38.5 -15q-22 0 -37 15t-15 37t15 37.5t37 15.5zM667 13q22 0 38 -15.5t16 -37.5t-15.5 -37t-38.5 -15t-37.5 15t-14.5 37t15 37.5t37 15.5zM859 270v305h-434v-143q46 48 117 48q64 0 113 -34q45 24 102 24q15 0 23 -3v-66
q-5 1 -19 1q-54 0 -89 -33t-35 -90q0 -51 32 -84t83 -33q44 0 75.5 31t31.5 77zM1306 575h-368v-143q46 48 117 48q82 0 133 -50t51 -131q0 -87 -57 -139t-142 -52q-11 0 -23 2v67q10 -2 20 -2q53 0 88 33t35 91q0 51 -31.5 83.5t-82.5 32.5q-44 0 -76 -30.5t-32 -76.5v-308
h-79v144q-44 -46 -116 -46q-82 0 -133 49.5t-51 130.5q0 69 38 118q-27 19 -64 19q-44 0 -76 -30.5t-32 -76.5v-308h-79v144q-44 -46 -116 -46q-82 0 -133 49.5t-51 130.5q0 87 57 139.5t141 52.5q16 0 23 -3v-66q-5 1 -19 1q-54 0 -89 -33t-35 -90q0 -51 32 -84t83 -33
q44 0 75.5 31t31.5 77v305h-368v67h1328v-67z" />
    <glyph glyph-name="dvK_KHA" horiz-adv-x="1363" 
d="M804 441v134h-379v-141q40 45 108 45q70 0 110.5 -38t47.5 -97q113 3 113 97zM1385 642v-67h-115v-575h-79v180q-46 -47 -120 -47q-69 0 -118 46t-49 119q0 77 49 122.5t120 45.5q25 0 48 -5v-65q-16 5 -38 5q-43 0 -72.5 -29t-29.5 -75t28.5 -73.5t74.5 -27.5
q44 0 75.5 30.5t31.5 79.5v269h-309v-142q0 -71 -44.5 -111t-118.5 -43l-12 -1l220 -278h-97l-215 279v42q0 39 -24 66.5t-67 27.5q-41 0 -70 -30.5t-29 -76.5v-308h-79v144q-44 -46 -116 -46q-82 0 -133 49.5t-51 130.5q0 87 57 139.5t141 52.5q16 0 23 -3v-66q-5 1 -19 1
q-54 0 -89 -33t-35 -90q0 -51 32 -84t83 -33q44 0 75.5 31t31.5 77v305h-368v67h1407z" />
    <glyph glyph-name="dvK_CA" horiz-adv-x="1131" 
d="M959 322v253h-534v-136q35 41 99 41q52 0 93 -30h250v-68q-109 0 -154.5 -34.5t-45.5 -86.5q0 -49 33 -75.5t86 -26.5q81 0 127 49.5t46 113.5zM1154 642v-67h-116v-575h-79v183q-54 -86 -182 -89q-81 0 -134 44t-53 119q0 86 76 125h-82q-28 33 -70 33t-65.5 -29.5
t-23.5 -77.5v-308h-79v144q-44 -46 -116 -46q-82 0 -133 49.5t-51 130.5q0 87 57 139.5t141 52.5q16 0 23 -3v-66q-5 1 -19 1q-54 0 -89 -33t-35 -90q0 -51 32 -84t83 -33q44 0 75.5 31t31.5 77v305h-368v67h1176z" />
    <glyph glyph-name="dvK_JA" horiz-adv-x="1171" 
d="M669 421h330v154h-574v-142q44 47 113 47q83 0 131 -59zM1193 642v-67h-116v-575h-78v354h-201q70 -38 70 -122q0 -79 -54 -124t-143 -45q-68 0 -120 22v72q54 -28 112 -28q59 0 93.5 27t34.5 79q0 58 -45.5 88.5t-128.5 30.5v3q-24 58 -92 58q-39 0 -69.5 -31t-30.5 -76
v-308h-79v144q-44 -46 -116 -46q-82 0 -133 49.5t-51 130.5q0 87 57 139.5t141 52.5q16 0 23 -3v-66q-5 1 -19 1q-54 0 -89 -33t-35 -90q0 -51 32 -84t83 -33q44 0 75.5 31t31.5 77v305h-368v67h1215z" />
    <glyph glyph-name="dvK_TTA" horiz-adv-x="1009" 
d="M425 575v-143q46 48 117 48q86 0 137 -57q62 35 140 35q16 0 24 -1v118h-418zM921 575v-186q-32 5 -70 5q-89 0 -143.5 -40.5t-54.5 -116.5q0 -71 48.5 -110t128.5 -39q79 0 142 38v-72q-62 -32 -145 -32q-114 0 -184.5 57.5t-70.5 158.5q0 80 49 138q-33 39 -88 39
q-44 0 -76 -30.5t-32 -76.5v-308h-79v144q-44 -46 -116 -46q-82 0 -133 49.5t-51 130.5q0 87 57 139.5t141 52.5q16 0 23 -3v-66q-5 1 -19 1q-54 0 -89 -33t-35 -90q0 -51 32 -84t83 -33q44 0 75.5 31t31.5 77v305h-368v67h1054v-67h-111z" />
    <glyph glyph-name="dvK_NNA" horiz-adv-x="1288" 
d="M876 348v227h-183v-227q0 -109 89 -109q94 0 94 109zM425 575v-143q46 48 117 48q37 0 73 -13v108h-190zM1310 642v-67h-116v-575h-78v575h-162v-225q0 -86 -44.5 -131.5t-128.5 -45.5q-166 0 -166 177v30q-30 35 -82 35q-44 0 -76 -30.5t-32 -76.5v-308h-79v144
q-44 -46 -116 -46q-82 0 -133 49.5t-51 130.5q0 87 57 139.5t141 52.5q16 0 23 -3v-66q-5 1 -19 1q-54 0 -89 -33t-35 -90q0 -51 32 -84t83 -33q44 0 75.5 31t31.5 77v305h-368v67h1332z" />
    <glyph glyph-name="dvK_TA" horiz-adv-x="907" 
d="M929 575h-400v-179q47 49 127 49q97 0 152.5 -61.5t55.5 -158.5q0 -100 -55.5 -161.5t-145.5 -61.5q-25 0 -45 5v67q15 -5 40 -5q58 0 91.5 42t33.5 114q0 65 -34.5 110.5t-97.5 45.5q-51 0 -86.5 -32.5t-35.5 -81.5v-267h-78v381h-76q-180 0 -180 -160q0 -71 36.5 -111
t107.5 -40q12 0 22 2v-68q-14 -2 -29 -2q-99 0 -158 58.5t-59 158.5q0 109 72 161q-17 -1 -53 -1h-60v69h377v127h-473v67h951v-67z" />
    <glyph glyph-name="dvKx_TA" horiz-adv-x="1103" 
d="M154 13q22 0 38 -15.5t16 -37.5t-15.5 -37t-38.5 -15q-22 0 -37 15t-15 37t15 37.5t37 15.5zM931 452v123h-506v-143q46 48 117 48q80 0 142 -60q59 32 143 32h104zM1125 642v-67h-116v-575h-78v384h-95q-177 0 -177 -156q0 -74 36.5 -117t107.5 -43q17 0 23 1v-67
q-16 -2 -30 -2q-100 0 -158 64t-58 165q0 87 46 143q-38 43 -93 43q-44 0 -76 -30.5t-32 -76.5v-308h-79v144q-44 -46 -116 -46q-82 0 -133 49.5t-51 130.5q0 87 57 139.5t141 52.5q16 0 23 -3v-66q-5 1 -19 1q-54 0 -89 -33t-35 -90q0 -51 32 -84t83 -33q44 0 75.5 31
t31.5 77v305h-368v67h1147z" />
    <glyph glyph-name="dvK_T_YA" horiz-adv-x="1491" 
d="M1320 334v241h-187q25 -38 25 -93q0 -118 -148 -164q12 -55 54 -90.5t101 -35.5q70 0 112.5 38.5t42.5 103.5zM808 452h18q106 0 151 -71q103 33 103 105q0 52 -31 89h-624v-143q46 48 117 48q85 0 135 -61q55 33 131 33zM1513 642v-67h-115v-575h-78v194
q-51 -69 -162 -69q-84 0 -147 52t-86 147q-30 60 -97 60h-20q-69 0 -109 -40t-40 -116q0 -74 36 -117t108 -43q17 0 22 1v-67q-14 -2 -29 -2q-101 0 -159 64t-58 165q0 81 41 139q-33 47 -87 47q-44 0 -76 -30.5t-32 -76.5v-308h-79v144q-44 -46 -116 -46q-82 0 -133 49.5
t-51 130.5q0 87 57 139.5t141 52.5q16 0 23 -3v-66q-5 1 -19 1q-54 0 -89 -33t-35 -90q0 -51 32 -84t83 -33q44 0 75.5 31t31.5 77v305h-368v67h1535z" />
    <glyph glyph-name="dvK_T_RA" horiz-adv-x="1077" 
d="M925 373v202h-500v-144q39 41 99 41q59 0 99 -37q49 22 112 22q121 0 190 -84zM1120 642v-67h-116v-575h-79v224l-268 -165l-42 58l285 175q-25 44 -68.5 70t-97.5 27q-68 0 -134 -39q-26 58 -84 58q-35 0 -63 -28t-28 -72v-308h-79v144q-44 -46 -116 -46
q-82 0 -133 49.5t-51 130.5q0 87 57 139.5t141 52.5q16 0 23 -3v-66q-5 1 -19 1q-54 0 -89 -33t-35 -90q0 -51 32 -84t83 -33q44 0 75.5 31t31.5 77v305h-368v67h1142z" />
    <glyph glyph-name="dvK_T_VA" horiz-adv-x="1458" 
d="M1270 313v262h-845v-145q45 48 118 48q83 0 138 -58q56 32 142 32h195q44 21 95 21q37 0 63 -8v-69q-26 9 -59 9q-42 0 -72 -21v0q-51 -35 -51 -101q0 -58 35.5 -93t88.5 -35q70 0 111 47t41 111zM1464 642v-67h-116v-575h-78v166q-52 -75 -160 -75q-80 0 -137.5 51.5
t-57.5 139.5q0 57 28 102h-111q-177 0 -177 -156q0 -74 36.5 -117t107.5 -43q17 0 23 1v-67q-16 -2 -30 -2q-100 0 -158 64t-58 165q0 86 46 144q-35 40 -88 40q-45 0 -77 -29.5t-32 -75.5v-308h-79v144q-44 -46 -116 -46q-82 0 -133 49.5t-51 130.5q0 87 57 139.5t141 52.5
q16 0 23 -3v-66q-5 1 -19 1q-54 0 -89 -33t-35 -90q0 -51 32 -84t83 -33q44 0 75.5 31t31.5 77v305h-368v67h1486z" />
    <glyph glyph-name="dvK_THA" horiz-adv-x="1226" 
d="M1054 642h192v-67h-114v-575h-78v205q-19 -36 -71.5 -66.5t-118.5 -30.5q-61 0 -105 17t-67.5 44t-39.5 59.5t-26.5 65t-21 59.5t-29.5 44t-48 17q-45 0 -73.5 -29t-28.5 -77v-308h-79v144q-44 -46 -116 -46q-82 0 -133 49.5t-51 130.5q0 87 57 139.5t141 52.5
q16 0 23 -3v-66q-5 1 -19 1q-54 0 -89 -33t-35 -90q0 -51 32 -84t83 -33q44 0 75.5 31t31.5 77v305h-368v67h593v-67h-146v-141q39 44 107 44q62 0 96.5 -31.5t55.5 -85.5q96 26 141.5 59.5t45.5 85.5q0 33 -17 54.5t-50 21.5t-50 -19.5t-17 -49.5q0 -13 2 -23t4.5 -17
t3.5 -10h-76q-11 30 -11 58q0 52 40 89.5t104 37.5q67 0 105 -40.5t38 -100.5q0 -82 -62.5 -131.5t-178.5 -76.5q36 -124 161 -124q77 0 132 50t55 144v273z" />
    <glyph glyph-name="dvK_DA" horiz-adv-x="1048" 
d="M425 575v-143q46 48 117 48q51 0 93 -22q43 33 114 33h99v84h-423zM926 424h-174q-36 0 -60 -15t-24 -48q0 -34 30 -49.5t105 -19.5q180 -5 180 -138q-1 -69 -55.5 -112t-147.5 -43q-107 0 -190 44v77q89 -55 190 -55q57 0 90 23t33 65q0 37 -30 54t-100 20
q-184 8 -184 132q0 19 5 39q-26 17 -61 17q-44 0 -76 -30.5t-32 -76.5v-308h-79v144q-44 -46 -116 -46q-82 0 -133 49.5t-51 130.5q0 87 57 139.5t141 52.5q16 0 23 -3v-66q-5 1 -19 1q-54 0 -89 -33t-35 -90q0 -51 32 -84t83 -33q44 0 75.5 31t31.5 77v305h-368v67h1092
v-67h-144v-151z" />
    <glyph glyph-name="dvK_NA" horiz-adv-x="783" 
d="M804 575h-368v-143q46 48 117 48q82 0 133 -50t51 -131q0 -87 -57 -139t-142 -52q-11 0 -23 2v67q12 -2 20 -2q54 0 89 33t35 91q0 51 -32 83.5t-83 32.5q-44 0 -76 -30.5t-32 -76.5v-308h-78v148q-10 -12 -24 -21h1l-158 -110q-16 -12 -16 -26q0 -28 59 -79l-48 -36
q-36 18 -66.5 49t-30.5 65q0 37 45 67l71 48q-62 14 -98 60.5t-36 113.5q0 87 57.5 139t141.5 52q14 0 23 -3v-66q-5 1 -20 1q-54 0 -88.5 -32.5t-34.5 -90.5q0 -51 31.5 -83t82.5 -32q44 0 76 31t32 77v303h-380v67h826v-67z" />
    <glyph glyph-name="dvK_PA" horiz-adv-x="1091" 
d="M919 382v193h-234v-201q0 -71 26 -102.5t80 -31.5q53 0 90.5 38.5t37.5 103.5zM425 575v-143q46 48 117 48q35 0 64 -10v105h-181zM1113 642v-67h-115v-575h-79v238q-46 -61 -133 -62q-180 0 -180 199v14q-28 26 -73 26q-44 0 -76 -30.5t-32 -76.5v-308h-79v144
q-44 -46 -116 -46q-82 0 -133 49.5t-51 130.5q0 87 57 139.5t141 52.5q16 0 23 -3v-66q-5 1 -19 1q-54 0 -89 -33t-35 -90q0 -51 32 -84t83 -33q44 0 75.5 31t31.5 77v305h-368v67h1135z" />
    <glyph glyph-name="dvK_P_RA" horiz-adv-x="1095" 
d="M923 399v176h-234v-183q0 -71 26 -102.5t80 -31.5q53 0 90.5 38t37.5 103zM425 575v-143q46 48 117 48q35 0 68 -11v106h-185zM1117 642v-67h-115v-575h-79v255l-243 -255h-102l184 196q-149 14 -152 190q-31 29 -77 29q-44 0 -76 -30.5t-32 -76.5v-308h-79v144
q-44 -46 -116 -46q-82 0 -133 49.5t-51 130.5q0 87 57 139.5t141 52.5q16 0 23 -3v-66q-5 1 -19 1q-54 0 -89 -33t-35 -90q0 -51 32 -84t83 -33q44 0 75.5 31t31.5 77v305h-368v67h1139z" />
    <glyph glyph-name="dvK_PHA" horiz-adv-x="1329" 
d="M919 382v193h-234v-201q0 -71 25.5 -100.5t80.5 -29.5q53 0 90.5 36.5t37.5 101.5zM425 575v-143q46 48 117 48q35 0 64 -10v105h-181zM1351 575h-353v-138q45 47 118 47q81 0 131.5 -50t50.5 -130q0 -88 -57 -139.5t-141 -51.5q-18 0 -24 2v67q12 -2 20 -2
q54 0 88.5 32.5t34.5 91.5q0 51 -31.5 83.5t-80.5 32.5q-45 0 -77 -31.5t-32 -78.5v-310h-79v238q-46 -58 -133 -59q-90 0 -135 45t-45 147v18q-28 26 -73 26q-44 0 -76 -30.5t-32 -76.5v-308h-79v144q-44 -46 -116 -46q-82 0 -133 49.5t-51 130.5q0 87 57 139.5t141 52.5
q16 0 23 -3v-66q-5 1 -19 1q-54 0 -89 -33t-35 -90q0 -51 32 -84t83 -33q44 0 75.5 31t31.5 77v305h-368v67h1373v-67z" />
    <glyph glyph-name="dvKx_PHA" horiz-adv-x="1328" 
d="M154 13q22 0 38 -15.5t16 -37.5t-15.5 -37t-38.5 -15q-22 0 -37 15t-15 37t15 37.5t37 15.5zM918 382v193h-234v-201q0 -71 25.5 -100.5t80.5 -29.5q53 0 90.5 36.5t37.5 101.5zM425 575v-143q46 48 117 48q34 0 63 -9v104h-180zM1350 575h-353v-138q45 47 118 47
q81 0 131.5 -50t50.5 -130q0 -88 -57 -139.5t-141 -51.5q-18 0 -24 2v67q12 -2 20 -2q54 0 88.5 32.5t34.5 91.5q0 51 -31.5 83.5t-80.5 32.5q-45 0 -77 -31.5t-32 -78.5v-310h-79v238q-46 -58 -133 -59q-90 0 -135 45t-45 147v19q-28 25 -72 25t-76 -30.5t-32 -76.5v-308
h-79v144q-44 -46 -116 -46q-82 0 -133 49.5t-51 130.5q0 87 57 139.5t141 52.5q16 0 23 -3v-66q-5 1 -19 1q-54 0 -89 -33t-35 -90q0 -51 32 -84t83 -33q44 0 75.5 31t31.5 77v305h-368v67h1372v-67z" />
    <glyph glyph-name="dvKx_PHxA" horiz-adv-x="1328" 
d="M154 13q22 0 38 -15.5t16 -37.5t-15.5 -37t-38.5 -15q-22 0 -37 15t-15 37t15 37.5t37 15.5zM677 67q22 0 38 -15.5t16 -37.5t-15.5 -37t-38.5 -15t-37.5 15t-14.5 37t15 37.5t37 15.5zM918 382v193h-234v-201q0 -71 25.5 -100.5t80.5 -29.5q53 0 90.5 36.5t37.5 101.5z
M425 575v-143q46 48 117 48q34 0 63 -9v104h-180zM1350 575h-353v-138q45 47 118 47q81 0 131.5 -50t50.5 -130q0 -88 -57 -139.5t-141 -51.5q-18 0 -24 2v67q12 -2 20 -2q54 0 88.5 32.5t34.5 91.5q0 51 -31.5 83.5t-80.5 32.5q-45 0 -77 -31.5t-32 -78.5v-310h-79v238
q-46 -58 -133 -59q-90 0 -135 45t-45 147v19q-28 25 -72 25t-76 -30.5t-32 -76.5v-308h-79v144q-44 -46 -116 -46q-82 0 -133 49.5t-51 130.5q0 87 57 139.5t141 52.5q16 0 23 -3v-66q-5 1 -19 1q-54 0 -89 -33t-35 -90q0 -51 32 -84t83 -33q44 0 75.5 31t31.5 77v305h-368
v67h1372v-67z" />
    <glyph glyph-name="dvKx_BA" horiz-adv-x="1136" 
d="M154 13q22 0 38 -15.5t16 -37.5t-15.5 -37t-38.5 -15q-22 0 -37 15t-15 37t15 37.5t37 15.5zM964 306v269h-539v-143q46 48 117 48q62 0 109 -31q59 46 143 46q40 0 83 -10v-69q-40 13 -78 13q-46 0 -78 -17l209 -205q34 43 34 99zM892 173l-212 206q-29 -37 -29 -93
q0 -62 39.5 -101.5t101.5 -39.5q60 0 100 28zM1158 642v-67h-116v-575h-78v163q-27 -36 -74 -59t-105 -23q-87 0 -148.5 57.5t-61.5 148.5q0 57 27 106q-28 22 -69 22q-44 0 -76 -30.5t-32 -76.5v-308h-79v144q-44 -46 -116 -46q-82 0 -133 49.5t-51 130.5q0 87 57 139.5
t141 52.5q16 0 23 -3v-66q-5 1 -19 1q-54 0 -89 -33t-35 -90q0 -51 32 -84t83 -33q44 0 75.5 31t31.5 77v305h-368v67h1180z" />
    <glyph glyph-name="dvK_MA" horiz-adv-x="1084" 
d="M913 343v232h-210v-232h210zM425 575v-143q45 48 119 48q44 0 81 -17v112h-200zM1107 642v-67h-116v-575h-78v277h-210v-136h-68l-25 56q-27 64 -27 90q0 20 11.5 34t30.5 19v43q-37 32 -88 32q-44 0 -77.5 -30t-34.5 -77v-308h-79v144q-44 -46 -116 -46q-82 0 -133 49.5
t-51 130.5q0 87 57 139.5t141 52.5q16 0 23 -3v-66q-5 1 -19 1q-54 0 -89 -33t-35 -90q0 -51 32 -84t83 -33q44 0 75.5 31t31.5 77v305h-368v67h1129z" />
    <glyph glyph-name="dvKx_MA" horiz-adv-x="1084" 
d="M154 13q22 0 38 -15.5t16 -37.5t-15.5 -37t-38.5 -15q-22 0 -37 15t-15 37t15 37.5t37 15.5zM913 343v232h-210v-232h210zM425 575v-143q45 48 119 48q44 0 81 -17v112h-200zM1107 642v-67h-116v-575h-78v277h-210v-136h-68l-25 56q-27 64 -27 90q0 20 11.5 34t30.5 19
v43q-37 32 -88 32q-44 0 -77.5 -30t-34.5 -77v-308h-79v144q-44 -46 -116 -46q-82 0 -133 49.5t-51 130.5q0 87 57 139.5t141 52.5q16 0 23 -3v-66q-5 1 -19 1q-54 0 -89 -33t-35 -90q0 -51 32 -84t83 -33q44 0 75.5 31t31.5 77v305h-368v67h1129z" />
    <glyph glyph-name="dvK_YA" horiz-adv-x="1174" 
d="M1010 334v241h-187q25 -38 25 -93q0 -66 -42 -107.5t-109 -60.5q19 -62 55.5 -92t101.5 -30q68 0 112 38.5t44 103.5zM425 575v-144q39 41 104 41q93 0 141 -95q43 13 71.5 43.5t28.5 65.5q0 51 -30 89h-315zM1204 642v-67h-116v-575h-78v194q-49 -69 -166 -69
q-55 0 -95 15.5t-62.5 40.5t-38 55t-26 60t-22.5 55t-31.5 40.5t-47.5 15.5q-41 0 -68.5 -26.5t-27.5 -72.5v-308h-79v144q-44 -46 -116 -46q-82 0 -133 49.5t-51 130.5q0 87 57 139.5t141 52.5q16 0 23 -3v-66q-5 1 -19 1q-54 0 -89 -33t-35 -90q0 -51 32 -84t83 -33
q44 0 75.5 31t31.5 77v305h-368v67h1226z" />
    <glyph glyph-name="dvK_LA" horiz-adv-x="1261" 
d="M1088 462v113h-663v-143q46 48 117 48t119 -39q40 28 93 28q54 0 89 -24.5t45 -69.5q23 98 140 98q32 0 60 -11zM1283 642v-67h-116v-575h-79v396q-26 13 -54 13q-108 0 -108 -127v-72h-78v74q0 119 -87 119q-44 0 -72.5 -36.5t-28.5 -104.5q0 -85 44 -140.5t129 -55.5
q17 0 27 2v-65q-18 -3 -38 -3q-108 0 -174 74.5t-66 188.5q0 70 29 122q-30 30 -78 30q-44 0 -76 -30.5t-32 -76.5v-308h-79v144q-44 -46 -116 -46q-82 0 -133 49.5t-51 130.5q0 87 57 139.5t141 52.5q16 0 23 -3v-66q-5 1 -19 1q-54 0 -89 -33t-35 -90q0 -51 32 -84t83 -33
q44 0 75.5 31t31.5 77v305h-368v67h1305z" />
    <glyph glyph-name="dvK_VA" horiz-adv-x="1099" 
d="M927 313v262h-502v-143q46 48 117 48q67 0 117 -37q49 30 111 30q37 0 63 -8v-69q-25 9 -59 9q-53 0 -88 -33.5t-35 -88.5q0 -58 35.5 -93t88.5 -35q70 0 111 47t41 111zM1121 642v-67h-116v-575h-78v166q-52 -75 -160 -75q-80 0 -137.5 51.5t-57.5 139.5q0 59 32 109
q-29 24 -71 24q-44 0 -76 -30.5t-32 -76.5v-308h-79v144q-44 -46 -116 -46q-82 0 -133 49.5t-51 130.5q0 87 57 139.5t141 52.5q16 0 23 -3v-66q-5 1 -19 1q-54 0 -89 -33t-35 -90q0 -51 32 -84t83 -33q44 0 75.5 31t31.5 77v305h-368v67h1143z" />
    <glyph glyph-name="dvK_V_YA" horiz-adv-x="1423" 
d="M1251 334v241h-187q25 -38 25 -93q0 -118 -148 -164q12 -55 54 -90.5t101 -35.5q70 0 112.5 38.5t42.5 103.5zM829 465v-69q-22 9 -59 9q-52 0 -87.5 -34.5t-35.5 -88.5q0 -57 39 -92t99 -35q74 0 128 51q-52 63 -65 161q80 12 121.5 44t41.5 75q0 52 -31 89h-555v-143
q46 48 117 48q66 0 115 -36q46 29 109 29q37 0 63 -8zM1444 642v-67h-115v-575h-78v194q-51 -69 -162 -69q-73 0 -130 39q-71 -73 -181 -73q-89 0 -149.5 51t-60.5 140q0 63 34 111q-28 22 -69 22q-44 0 -76 -30.5t-32 -76.5v-308h-79v144q-44 -46 -116 -46q-82 0 -133 49.5
t-51 130.5q0 87 57 139.5t141 52.5q16 0 23 -3v-66q-5 1 -19 1q-54 0 -89 -33t-35 -90q0 -51 32 -84t83 -33q44 0 75.5 31t31.5 77v305h-368v67h1466z" />
    <glyph glyph-name="dvK_SHA" horiz-adv-x="1220" 
d="M425 575v-140q44 49 116 49q35 0 65 -11q-1 7 -1 21q0 60 40 104.5t109 44.5q78 0 121 -52.5t43 -133.5q0 -104 -61 -162t-155 -58h-27l215 -237h-104l-207 235v69h99q78 0 120 41t42 113q0 54 -22.5 85.5t-62.5 31.5q-38 0 -57 -27t-19 -64q0 -50 29 -98h-79
q-34 34 -84 34t-84.5 -30.5t-35.5 -79.5v-310h-79v144q-44 -46 -116 -46q-82 0 -133 49.5t-51 130.5q0 87 57 139.5t141 52.5q16 0 23 -3v-66q-5 1 -19 1q-54 0 -89 -33t-35 -90q0 -51 32 -84t83 -33q44 0 75.5 31t31.5 77v305h-368v67h547v-67h-100zM1031 642h194v-67h-116
v-575h-78v642z" />
    <glyph glyph-name="dvK_SS_MA" horiz-adv-x="1082" 
d="M910 346v229h-210v-229h210zM271 583q-40 0 -65 -25t-25 -60q0 -83 95 -103q84 29 84 104q0 32 -26.5 58t-62.5 26zM487 642h616v-67h-115v-575h-78v280h-210v-136h-68l-25 56q-27 64 -27 90q0 22 12 35h-260q-39 0 -71 7q-57 -17 -93 -49t-36 -78q0 -43 29.5 -68.5
t74.5 -25.5q51 0 89 32.5t50 84.5h72v-228h-77v112q-14 -27 -55 -47t-85 -20q-80 0 -129.5 43.5t-49.5 114.5q0 56 35.5 97.5t92.5 63.5q-75 49 -75 135q0 59 46.5 104t116.5 45q75 0 122.5 -42.5t47.5 -102.5q0 -73 -58 -114h243v186h-135v67z" />
    <glyph glyph-name="dvK_SS_M_YA" horiz-adv-x="1449" 
d="M1278 334v241h-187q25 -38 25 -93q0 -58 -41.5 -103t-106.5 -65q14 -54 55.5 -88t99.5 -34q70 0 112.5 38.5t42.5 103.5zM693 347h66q56 0 102.5 7t88 22t65 44.5t23.5 70.5q0 51 -31 84h-314v-228zM271 583q-40 0 -65 -25t-25 -60q0 -83 95 -103q84 29 84 104
q0 32 -26.5 58t-62.5 26zM480 642h992v-67h-116v-575h-78v194q-51 -69 -162 -69q-79 0 -138.5 42.5t-87.5 121.5q-74 -11 -152 -11h-45v-135h-68l-25 56q-27 64 -27 90q0 21 12 36h-253q-39 0 -71 7q-57 -17 -93 -49t-36 -78q0 -43 29.5 -68.5t74.5 -25.5q51 0 89 32.5
t50 84.5h72v-228h-77v112q-14 -27 -55 -47t-85 -20q-80 0 -129.5 43.5t-49.5 114.5q0 56 35.5 97.5t92.5 63.5q-75 49 -75 135q0 59 46.5 104t116.5 45q75 0 122.5 -42.5t47.5 -102.5q0 -73 -58 -114h236v186h-135v67z" />
    <glyph glyph-name="dvK_SS_YA" horiz-adv-x="1096" 
d="M924 334v241h-187q25 -40 25 -91q0 -117 -149 -156q14 -62 54.5 -99t102.5 -37q69 0 111.5 38.5t42.5 103.5zM271 583q-40 0 -65 -25t-25 -60q0 -73 86 -106q93 29 93 106q0 32 -26.5 58.5t-62.5 26.5zM504 642h614v-67h-116v-575h-78v194q-50 -69 -162 -69
q-84 0 -144 49t-83 137q-36 -6 -98 -6q-111 0 -185 24q-120 -41 -120 -124q0 -43 29.5 -68.5t74.5 -25.5q50 0 88 31t51 79h72v-221h-77v111q-15 -27 -55.5 -46.5t-84.5 -19.5q-80 0 -129.5 43.5t-49.5 114.5q0 56 35 97t92 64q-74 50 -74 135q0 59 46.5 104t116.5 45
q75 0 122.5 -42.5t47.5 -102.5q0 -90 -87 -130q43 -5 88 -5q246 0 246 126q0 45 -30 81h-150v67z" />
    <glyph glyph-name="dvK_SS_VA" horiz-adv-x="1072" 
d="M271 583q-40 0 -65 -25t-25 -60q0 -83 95 -103q84 29 84 104q0 32 -26.5 58t-62.5 26zM1094 642v-67h-116v-575h-78v166q-52 -75 -160 -75q-80 0 -137.5 51.5t-57.5 139.5q0 15 4 43h-217q-39 0 -71 7q-57 -17 -93 -49t-36 -78q0 -43 29.5 -68.5t74.5 -25.5q51 0 89 32.5
t50 84.5h72v-228h-77v112q-14 -27 -55 -47t-85 -20q-80 0 -129.5 43.5t-49.5 114.5q0 56 35.5 97.5t92.5 63.5q-75 49 -75 135q0 59 46.5 104t116.5 45q75 0 122.5 -42.5t47.5 -102.5q0 -73 -58 -114h197q56 84 167 84q37 0 64 -8v-69q-27 9 -59 9q-53 0 -88.5 -34
t-35.5 -88q0 -58 36 -93t89 -35q70 0 110.5 47t40.5 111v262h-390v67h584z" />
    <glyph glyph-name="dvK_SA" horiz-adv-x="1229" 
d="M837 333h220v242h-193v-143q0 -63 -27 -99zM425 575v-141q41 44 109 44q66 0 107.5 -36.5t54.5 -97.5q52 1 70.5 24t18.5 70v137h-360zM1251 642v-67h-116v-575h-78v265h-168q-111 0 -170 9l184 -274h-95l-187 282v23q0 45 -26 77t-71 32q-43 0 -71 -30t-28 -76v-308h-79
v144q-44 -46 -116 -46q-82 0 -133 49.5t-51 130.5q0 87 57 139.5t141 52.5q16 0 23 -3v-66q-5 1 -19 1q-54 0 -89 -33t-35 -90q0 -51 32 -84t83 -33q44 0 75.5 31t31.5 77v305h-368v67h1273z" />
    <glyph glyph-name="dvK_S_TTA" horiz-adv-x="1003" 
d="M271 583q-40 0 -65 -25t-25 -60q0 -83 95 -103q84 29 84 104q0 32 -26.5 58t-62.5 26zM915 575v-186q-33 5 -71 5q-89 0 -143.5 -40.5t-54.5 -116.5q0 -71 48.5 -110t129.5 -39q78 0 141 38v-72q-60 -32 -145 -32q-114 0 -184.5 57.5t-70.5 158.5q0 47 17 87h-250
q-39 0 -71 7q-57 -17 -93 -49t-36 -78q0 -43 29.5 -68.5t74.5 -25.5q51 0 89 32.5t50 84.5h72v-228h-77v112q-14 -27 -55 -47t-85 -20q-80 0 -129.5 43.5t-49.5 114.5q0 56 35.5 97.5t92.5 63.5q-75 49 -75 135q0 59 46.5 104t116.5 45q75 0 122.5 -42.5t47.5 -102.5
q0 -73 -58 -114h248q69 67 185 69q17 0 24 -1v118h-329v67h518v-67h-110z" />
    <glyph glyph-name="dvK_S_DDA" horiz-adv-x="1041" 
d="M271 583q-40 0 -65 -25t-25 -60q0 -83 95 -103q84 29 84 104q0 32 -26.5 58t-62.5 26zM920 424h-174q-36 0 -60 -15t-24 -48q0 -34 30 -49.5t105 -19.5q180 -5 180 -138q-1 -69 -55.5 -112t-147.5 -43q-107 0 -190 44v77q89 -55 190 -55q57 0 90 23t33 65q0 37 -30 54
t-100 20q-157 6 -180 98h-255q-39 0 -71 7q-57 -17 -93 -49t-36 -78q0 -43 29.5 -68.5t74.5 -25.5q51 0 89 32.5t50 84.5h72v-228h-77v112q-14 -27 -55 -47t-85 -20q-80 0 -129.5 43.5t-49.5 114.5q0 56 35.5 97.5t92.5 63.5q-75 49 -75 135q0 59 46.5 104t116.5 45
q75 0 122.5 -42.5t47.5 -102.5q0 -73 -58 -114h207q10 50 53 76t104 26h99v84h-343v67h565v-67h-144v-151z" />
    <glyph glyph-name="dvK_S_TA" horiz-adv-x="1086" 
d="M271 583q-40 0 -65 -25t-25 -60q0 -83 95 -103q84 29 84 104q0 32 -26.5 58t-62.5 26zM1108 642v-67h-116v-575h-78v384h-94q-177 0 -177 -156q0 -74 36 -117t107 -43q18 0 23 1v-67q-14 -2 -30 -2q-100 0 -158 64t-58 165q0 53 18 96h-249q-39 0 -71 7q-57 -17 -93 -49
t-36 -78q0 -43 29.5 -68.5t74.5 -25.5q51 0 89 32.5t50 84.5h72v-228h-77v112q-14 -27 -55 -47t-85 -20q-80 0 -129.5 43.5t-49.5 114.5q0 56 35.5 97.5t92.5 63.5q-75 49 -75 135q0 59 46.5 104t116.5 45q75 0 122.5 -42.5t47.5 -102.5q0 -73 -58 -114h245q66 63 186 63
h104v123h-392v67h586z" />
    <glyph glyph-name="dvK_S_P_RA" horiz-adv-x="1539" 
d="M1366 399v176h-234v-183q0 -71 26 -102.5t80 -31.5q53 0 90.5 38t37.5 103zM837 333h221q-5 30 -5 60v182h-189v-143q0 -63 -27 -99zM425 575v-141q41 44 109 44q66 0 107.5 -36.5t54.5 -97.5q52 1 71 24t19 70v137h-361zM1560 642v-67h-115v-575h-79v255l-243 -255h-102
l184 196q-87 8 -123 69h-192q-111 0 -170 9l184 -274h-95l-187 282v23h-1q0 45 -26 77t-71 32q-43 0 -71 -30t-28 -76v-308h-79v144q-44 -46 -116 -46q-82 0 -133 49.5t-51 130.5q0 87 57 139.5t141 52.5q16 0 23 -3v-66q-5 1 -19 1q-54 0 -89 -33t-35 -90q0 -51 32 -84
t83 -33q44 0 75.5 31t31.5 77v305h-368v67h1582z" />
    <glyph glyph-name="dvK_S_P_LA" horiz-adv-x="2038" 
d="M1865 462v113h-738v-201q0 -71 26 -102.5t80 -31.5q79 0 129 68q11 73 56 117t113 44q54 0 89 -24.5t45 -69.5q23 98 140 98q33 0 60 -11zM837 333h213q-2 26 -2 42v200h-184v-143q0 -63 -27 -99zM425 575v-141q41 44 109 44q66 0 107.5 -36.5t54.5 -97.5q52 1 70.5 24
t18.5 70v137h-360zM2060 642v-67h-116v-575h-79v396q-26 13 -54 13q-108 0 -108 -127v-72h-78v74q0 119 -87 119q-44 0 -72.5 -36.5t-28.5 -104.5q0 -85 44 -140.5t129 -55.5q17 0 27 2v-65q-18 -3 -38 -3q-98 0 -162 61.5t-75 159.5q-60 -45 -134 -45q-121 0 -161 89h-178
q-111 0 -170 9l184 -274h-95l-187 282v23q0 45 -26 77t-71 32q-43 0 -71 -30t-28 -76v-308h-79v144q-44 -46 -116 -46q-82 0 -133 49.5t-51 130.5q0 87 57 139.5t141 52.5q16 0 23 -3v-66q-5 1 -19 1q-54 0 -89 -33t-35 -90q0 -51 32 -84t83 -33q44 0 75.5 31t31.5 77v305
h-368v67h2082z" />
    <glyph glyph-name="dvKH_KHA" horiz-adv-x="1350" 
d="M1178 451v124h-335v-117q0 -75 -25.5 -110.5t-90.5 -38.5l-13 -1q21 -82 89.5 -139.5t161.5 -57.5q95 0 156 54.5t61 137.5q0 57 -30 91t-85 34q-42 0 -65.5 -24.5t-23.5 -59.5q0 -32 20 -52t50 -20q25 0 45 10v-61q-27 -11 -53 -11q-58 0 -97.5 36.5t-39.5 95.5
q0 63 45.5 106t113.5 43q69 0 116 -40zM285 575v-117q0 -73 -25 -109t-88 -39q-4 -2 -16 -2q21 -83 89.5 -140t162.5 -57q96 0 153 52t57 136q0 58 -28 93.5t-83 35.5q-41 0 -64 -24.5t-23 -59.5q0 -32 20 -52t50 -20q25 0 45 10v-61q-27 -11 -54 -11q-58 0 -97.5 36.5
t-39.5 95.5q0 63 45.5 106t113.5 43q62 0 109 -29.5t67 -87.5h10q49 0 62.5 20.5t13.5 74.5v106h-480zM1373 642v-67h-116v-575h-79v137q-77 -95 -219 -95q-93 0 -167 44t-121 118q-30 -72 -99.5 -117t-168.5 -45q-125 0 -214 75.5t-124 191.5v65h66q49 0 62 20.5t13 74.5
v106h-228v67h1395z" />
    <glyph glyph-name="dvKH_TA" horiz-adv-x="1140" 
d="M968 452v123h-683v-117q0 -73 -25 -109t-88 -39q-4 -2 -16 -2q21 -83 89.5 -140t162.5 -57q96 0 153 52t57 136q0 58 -28 93.5t-83 35.5q-41 0 -64 -24.5t-23 -59.5q0 -32 20 -52t50 -20q25 0 45 10v-61q-27 -11 -54 -11q-58 0 -97.5 36.5t-39.5 95.5q0 63 45.5 106
t113.5 43q59 0 105 -27t67 -79q65 67 189 67h104zM1162 642v-67h-116v-575h-78v384h-95q-177 0 -177 -156q0 -74 36.5 -117t107.5 -43q17 0 23 1v-67q-16 -2 -30 -2q-75 0 -127.5 37t-74.5 101q-81 -96 -228 -96q-125 0 -214 75.5t-124 191.5v65h66q49 0 62 20.5t13 74.5
v106h-228v67h1184z" />
    <glyph glyph-name="dvKHx_TA" horiz-adv-x="1140" 
d="M84 47q22 0 38 -15.5t16 -37.5t-15.5 -37t-38.5 -15q-22 0 -37 15t-15 37t15 37.5t37 15.5zM968 452v123h-683v-117q0 -73 -25 -109t-88 -39q-4 -2 -16 -2q21 -83 89.5 -140t162.5 -57q96 0 153 52t57 136q0 58 -28 93.5t-83 35.5q-41 0 -64 -24.5t-23 -59.5
q0 -32 20 -52t50 -20q25 0 45 10v-61q-27 -11 -54 -11q-58 0 -97.5 36.5t-39.5 95.5q0 63 45.5 106t113.5 43q59 0 105 -27t67 -79q65 67 189 67h104zM1162 642v-67h-116v-575h-78v384h-95q-177 0 -177 -156q0 -74 36.5 -117t107.5 -43q17 0 23 1v-67q-16 -2 -30 -2
q-75 0 -127.5 37t-74.5 101q-81 -96 -228 -96q-125 0 -214 75.5t-124 191.5v65h66q49 0 62 20.5t13 74.5v106h-228v67h1184z" />
    <glyph glyph-name="dvKH_NA" horiz-adv-x="792" 
d="M620 450v125h-335v-117q0 -74 -26 -110t-90 -39l-13 -1q21 -82 89.5 -139.5t161.5 -57.5q95 0 156 54.5t61 137.5q0 57 -30.5 91t-85.5 34q-41 0 -64.5 -24.5t-23.5 -59.5q0 -32 20 -52t50 -20q25 0 45 10v-61q-27 -11 -54 -11q-58 0 -97.5 36.5t-39.5 95.5
q0 63 45.5 106t113.5 43q70 0 117 -41zM814 642v-67h-116v-575h-78v138q-37 -46 -93 -71l-281 -122q-24 -11 -24 -31q0 -32 37 -85l-58 -18q-24 21 -43.5 52.5t-19.5 62.5q0 48 62 71l124 53q-95 22 -162.5 92.5t-96.5 166.5v65h66q49 0 62 20.5t13 74.5v106h-228v67h836z
" />
    <glyph glyph-name="dvKH_MA" horiz-adv-x="1143" 
d="M972 346v229h-210v-229h210zM535 282v-61q-27 -11 -54 -11q-58 0 -97.5 36.5t-39.5 95.5q0 63 45.5 106t113.5 43q67 0 116.5 -34.5t64.5 -100.5v219h-399v-117q0 -73 -25 -109t-88 -39q-4 -2 -16 -2q21 -83 89.5 -140t162.5 -57q96 0 153 52t57 136q0 58 -28 93.5
t-83 35.5q-41 0 -64 -24.5t-23 -59.5q0 -32 20 -52t50 -20q25 0 45 10zM1165 642v-67h-115v-575h-78v280h-210v-136h-68l-25 55q-31 -70 -100 -113.5t-166 -43.5q-125 0 -214 75.5t-124 191.5v65h66q49 0 62 20.5t13 74.5v106h-228v67h1187z" />
    <glyph glyph-name="dvKHx_MA" horiz-adv-x="1143" 
d="M84 47q22 0 38 -15.5t16 -37.5t-15.5 -37t-38.5 -15q-22 0 -37 15t-15 37t15 37.5t37 15.5zM972 346v229h-210v-229h210zM535 282v-61q-27 -11 -54 -11q-58 0 -97.5 36.5t-39.5 95.5q0 63 45.5 106t113.5 43q67 0 116.5 -34.5t64.5 -100.5v219h-399v-117q0 -73 -25 -109
t-88 -39q-4 -2 -16 -2q21 -83 89.5 -140t162.5 -57q96 0 153 52t57 136q0 58 -28 93.5t-83 35.5q-41 0 -64 -24.5t-23 -59.5q0 -32 20 -52t50 -20q25 0 45 10zM1165 642v-67h-115v-575h-78v280h-210v-136h-68l-25 55q-31 -70 -100 -113.5t-166 -43.5q-125 0 -214 75.5
t-124 191.5v65h66q49 0 62 20.5t13 74.5v106h-228v67h1187z" />
    <glyph glyph-name="dvKH_YA" horiz-adv-x="1186" 
d="M1015 334v241h-187q25 -38 25 -93q0 -118 -148 -164q12 -55 54 -90.5t101 -35.5q70 0 112.5 38.5t42.5 103.5zM535 282v-61q-27 -11 -54 -11q-58 0 -97.5 36.5t-39.5 95.5q0 63 45.5 106t113.5 43q60 0 106.5 -27.5t66.5 -81.5q99 34 99 104q0 52 -31 89h-459v-117
q0 -73 -25 -109t-88 -39q-4 -2 -16 -2q21 -83 89.5 -140t162.5 -57q96 0 153 52t57 136q0 58 -28 93.5t-83 35.5q-41 0 -64 -24.5t-23 -59.5q0 -32 20 -52t50 -20q25 0 45 10zM1208 642v-67h-115v-575h-78v194q-51 -69 -162 -69t-179 85q-28 -75 -99 -121.5t-172 -46.5
q-125 0 -214 75.5t-124 191.5v65h66q49 0 62 20.5t13 74.5v106h-228v67h1230z" />
    <glyph glyph-name="dvKHx_YA" horiz-adv-x="1186" 
d="M84 47q22 0 38 -15.5t16 -37.5t-15.5 -37t-38.5 -15q-22 0 -37 15t-15 37t15 37.5t37 15.5zM1015 334v241h-187q25 -38 25 -93q0 -118 -148 -164q12 -55 54 -90.5t101 -35.5q70 0 112.5 38.5t42.5 103.5zM535 282v-61q-27 -11 -54 -11q-58 0 -97.5 36.5t-39.5 95.5
q0 63 45.5 106t113.5 43q60 0 106.5 -27.5t66.5 -81.5q99 34 99 104q0 52 -31 89h-459v-117q0 -73 -25 -109t-88 -39q-4 -2 -16 -2q21 -83 89.5 -140t162.5 -57q96 0 153 52t57 136q0 58 -28 93.5t-83 35.5q-41 0 -64 -24.5t-23 -59.5q0 -32 20 -52t50 -20q25 0 45 10z
M1208 642v-67h-115v-575h-78v194q-51 -69 -162 -69t-179 85q-28 -75 -99 -121.5t-172 -46.5q-125 0 -214 75.5t-124 191.5v65h66q49 0 62 20.5t13 74.5v106h-228v67h1230z" />
    <glyph glyph-name="dvKH_VA" horiz-adv-x="1146" 
d="M974 313v262h-689v-117q0 -73 -25 -109t-88 -39q-4 -2 -16 -2q21 -83 89.5 -140t162.5 -57q96 0 153 52t57 136q0 58 -28 93.5t-83 35.5q-41 0 -64 -24.5t-23 -59.5q0 -32 20 -52t50 -20q25 0 45 10v-61q-27 -11 -54 -11q-58 0 -97.5 36.5t-39.5 95.5q0 63 45.5 106
t113.5 43q112 0 161 -83q57 65 153 65q37 0 63 -8v-69q-26 9 -59 9q-53 0 -88 -33.5t-35 -88.5q0 -58 35.5 -93t88.5 -35q70 0 111 47t41 111zM1168 642v-67h-116v-575h-78v166q-52 -75 -160 -75q-104 0 -161 78q-35 -58 -99.5 -92.5t-150.5 -34.5q-125 0 -214 75.5
t-124 191.5v65h66q49 0 62 20.5t13 74.5v106h-228v67h1190z" />
    <glyph glyph-name="dvKHx_VA" horiz-adv-x="1146" 
d="M84 47q22 0 38 -15.5t16 -37.5t-15.5 -37t-38.5 -15q-22 0 -37 15t-15 37t15 37.5t37 15.5zM974 313v262h-689v-117q0 -73 -25 -109t-88 -39q-4 -2 -16 -2q21 -83 89.5 -140t162.5 -57q96 0 153 52t57 136q0 58 -28 93.5t-83 35.5q-41 0 -64 -24.5t-23 -59.5
q0 -32 20 -52t50 -20q25 0 45 10v-61q-27 -11 -54 -11q-58 0 -97.5 36.5t-39.5 95.5q0 63 45.5 106t113.5 43q112 0 161 -83q57 65 153 65q37 0 63 -8v-69q-26 9 -59 9q-53 0 -88 -33.5t-35 -88.5q0 -58 35.5 -93t88.5 -35q70 0 111 47t41 111zM1168 642v-67h-116v-575h-78
v166q-52 -75 -160 -75q-104 0 -161 78q-35 -58 -99.5 -92.5t-150.5 -34.5q-125 0 -214 75.5t-124 191.5v65h66q49 0 62 20.5t13 74.5v106h-228v67h1190z" />
    <glyph glyph-name="dvKH_SHA" horiz-adv-x="1285" 
d="M780 442h-77q-13 27 -13 64q0 57 39 97t106 40q75 0 120 -50.5t45 -122.5q0 -101 -67.5 -157.5t-158.5 -56.5h-33l230 -256h-103l-191 219q-27 -78 -98.5 -127.5t-175.5 -49.5q-125 0 -214 75.5t-124 191.5v65h66q49 0 62 20.5t13 74.5v106h-228v67h627v-67h-320v-117
q0 -73 -25 -109t-88 -39q-4 -2 -16 -2q21 -83 89.5 -140t162.5 -57q96 0 153 52t57 136q0 58 -28 93.5t-83 35.5q-41 0 -64 -24.5t-23 -59.5q0 -32 20 -52t50 -20q25 0 45 10v-61q-27 -11 -54 -11q-58 0 -97.5 36.5t-39.5 95.5q0 63 45.5 106t113.5 43q75 0 127 -43t59 -125
h57q83 0 129.5 38.5t46.5 106.5q0 54 -23.5 80.5t-63.5 26.5q-35 0 -52.5 -21.5t-17.5 -54.5q0 -31 15 -57zM1112 642h195v-67h-116v-575h-79v642z" />
    <glyph glyph-name="dvKHx_SHA" horiz-adv-x="1284" 
d="M84 47q22 0 38 -15.5t16 -37.5t-15.5 -37t-38.5 -15q-22 0 -37 15t-15 37t15 37.5t37 15.5zM780 442h-77q-13 27 -13 64q0 57 39 97t106 40q75 0 120 -50.5t45 -122.5q0 -101 -67.5 -157.5t-158.5 -56.5h-33l230 -256h-103l-191 219q-27 -78 -98.5 -127.5t-175.5 -49.5
q-125 0 -214 75.5t-124 191.5v65h66q49 0 62 20.5t13 74.5v106h-228v67h627v-67h-320v-117q0 -73 -25 -109t-88 -39q-4 -2 -16 -2q21 -83 89.5 -140t162.5 -57q96 0 153 52t57 136q0 58 -28 93.5t-83 35.5q-41 0 -64 -24.5t-23 -59.5q0 -32 20 -52t50 -20q25 0 45 10v-61
q-27 -11 -54 -11q-58 0 -97.5 36.5t-39.5 95.5q0 63 45.5 106t113.5 43q75 0 127 -43t59 -125h57q83 0 129.5 38.5t46.5 106.5q0 54 -23.5 80.5t-63.5 26.5q-35 0 -52.5 -21.5t-17.5 -54.5q0 -31 15 -57zM1112 642h195v-67h-116v-575h-79v642z" />
    <glyph glyph-name="dvKHx_SA" horiz-adv-x="1236" 
d="M84 47q22 0 38 -15.5t16 -37.5t-15.5 -37t-38.5 -15q-22 0 -37 15t-15 37t15 37.5t37 15.5zM844 333h221v242h-194v-143q0 -63 -27 -99zM285 575v-117q0 -73 -25 -109t-88 -39q-4 -2 -16 -2q21 -83 89.5 -140t162.5 -57q96 0 153 52t57 136q0 58 -28 93.5t-83 35.5
q-41 0 -64 -24.5t-23 -59.5q0 -32 20 -52t50 -20q25 0 45 10v-61q-27 -11 -54 -11q-58 0 -97.5 36.5t-39.5 95.5q0 63 45.5 106t113.5 43q71 0 121 -37t62 -110h9q57 0 77.5 22.5t20.5 71.5v137h-508zM1258 642v-67h-115v-575h-78v265h-168q-111 0 -170 9l184 -274h-95
l-141 213q-28 -76 -99 -123.5t-173 -47.5q-125 0 -214 75.5t-124 191.5v65h66q49 0 62 20.5t13 74.5v106h-228v67h1280z" />
    <glyph glyph-name="dvG_GA" horiz-adv-x="878" 
d="M900 642v-67h-116v-575h-77v575h-175v-234q0 -63 -32 -97.5t-93 -34.5q-41 0 -73 13v69q30 -14 61 -14q60 0 60 67v231h-227v-234q0 -63 -32 -97.5t-93 -34.5q-41 0 -73 13v69q30 -14 61 -14q60 0 60 67v231h-173v67h922z" />
    <glyph glyph-name="dvG_GHA" horiz-adv-x="932" 
d="M762 330v245h-260q-56 -30 -56 -89q0 -79 126 -79h48v-68h-59q-56 0 -88.5 -24.5t-32.5 -68.5q0 -43 35.5 -65t85.5 -22q84 0 142.5 51t58.5 120zM955 642v-67h-116v-575h-77v186q-30 -40 -85.5 -66.5t-121.5 -26.5q-87 0 -140.5 41.5t-53.5 111.5q0 52 31 83.5t86 42.5
q-45 5 -78 33.5t-33 78.5q0 55 42 91h-181v-234q0 -63 -32 -97.5t-93 -34.5q-41 0 -73 13v69q30 -14 61 -14q60 0 60 67v231h-173v67h977z" />
    <glyph glyph-name="dvG_JA" horiz-adv-x="962" 
d="M984 642v-67h-116v-575h-78v384h-201q72 -43 72 -141q0 -81 -54.5 -130.5t-144.5 -49.5q-66 0 -120 22v72q54 -28 112 -28t93.5 31.5t35.5 87.5q0 67 -46.5 101.5t-128.5 34.5v67h382v124h-562v-234q0 -63 -32 -97.5t-93 -34.5q-41 0 -73 13v69q30 -14 61 -14q60 0 60 67
v231h-173v67h1006z" />
    <glyph glyph-name="dvG_NNA" horiz-adv-x="1054" 
d="M642 348v227h-183v-227q0 -109 89 -109q94 0 94 109zM1076 642v-67h-116v-575h-78v575h-162v-225q0 -86 -44.5 -131.5t-128.5 -45.5q-166 0 -166 177v225h-153v-234q0 -63 -32 -97.5t-93 -34.5q-41 0 -73 13v69q30 -14 61 -14q60 0 60 67v231h-173v67h1098z" />
    <glyph glyph-name="dvG_DA" horiz-adv-x="856" 
d="M758 408h-176q-68 0 -107 -35t-39 -98q0 -65 35 -102t94 -37t94.5 33t37.5 85h75v-264h-78v133q-41 -52 -135 -52q-93 0 -150 58t-57 143q0 89 59 145.5t165 56.5h104v101h-452v-234q0 -63 -32 -97.5t-93 -34.5q-41 0 -73 13v69q30 -14 61 -14q60 0 60 67v231h-173v67
h900v-67h-120v-167z" />
    <glyph glyph-name="dvG_DHA" horiz-adv-x="915" 
d="M937 642v-67h-115v-575h-78v157q-25 -39 -75.5 -66t-116.5 -27q-95 0 -151.5 45.5t-56.5 114.5q0 56 35 89.5t92 40.5q-56 6 -89 36t-33 84q0 69 62 101h-183v-234q0 -63 -32 -97.5t-93 -34.5q-41 0 -73 13v69q30 -14 61 -14q60 0 60 67v231h-173v67h591v-67h-1
q-66 0 -103 -28t-37 -72q0 -45 38 -66.5t98 -21.5h50v-67h-59q-61 0 -96 -25.5t-35 -70.5q0 -41 35.5 -67t96.5 -26q84 0 136 51.5t52 115.5v344h193z" />
    <glyph glyph-name="dvG_DH_YA" horiz-adv-x="1316" 
d="M1144 334v241h-187q25 -38 25 -93q0 -118 -148 -164q12 -55 54.5 -90.5t101.5 -35.5q69 0 111.5 38.5t42.5 103.5zM742 642h596v-67h-116v-575h-78v194q-50 -69 -162 -69q-80 0 -141 47q-104 -108 -252 -108q-96 0 -153 45.5t-57 114.5q0 56 35 89.5t92 40.5
q-56 6 -89 36t-33 84q0 69 62 101h-218v-234q0 -63 -32 -97.5t-93 -34.5q-41 0 -73 13v69q30 -14 61 -14q60 0 60 67v231h-173v67h626v-67h-1q-66 0 -103 -28t-37 -72q0 -45 38 -66.5t98 -21.5h50v-67h-59q-61 0 -96 -25.5t-35 -70.5q0 -41 36 -67t98 -26q118 0 202 91
q-43 59 -53 145q80 12 121 44t41 75q0 51 -30 89h-132v67z" />
    <glyph glyph-name="dvG_DH_VA" horiz-adv-x="1306" 
d="M1328 642v-67h-116v-575h-78v166q-52 -75 -160 -75q-93 0 -150 65q-101 -92 -235 -92q-96 0 -153 45.5t-57 114.5q0 56 35 89.5t92 40.5q-56 6 -89 36t-33 84q0 69 62 101h-218v-234q0 -63 -32 -97.5t-93 -34.5q-41 0 -73 13v69q30 -14 61 -14q60 0 60 67v231h-173v67
h626v-67h-1q-66 0 -103 -28t-37 -72q0 -45 38 -66.5t98 -21.5h50v-67h-59q-61 0 -96 -25.5t-35 -70.5q0 -41 36 -67t98 -26q114 0 196 85q-10 33 -10 66q0 82 55.5 136.5t142.5 54.5q37 0 63 -8v-69q-26 9 -59 9q-53 0 -88 -33.5t-35 -88.5q0 -58 35.5 -93t88.5 -35
q70 0 111 47t41 111v262h-358v67h552z" />
    <glyph glyph-name="dvG_NA" horiz-adv-x="582" 
d="M-22 642h626v-67h-116v-575h-77v163l-185 -111q-18 -12 -18 -29q0 -29 55 -76l-50 -34q-34 20 -63 50.5t-29 63.5q0 38 48 68l242 147v333h-175v-234q0 -63 -32.5 -97.5t-92.5 -34.5q-41 0 -73 13v69q30 -14 61 -14q60 0 60 67v231h-181v67z" />
    <glyph glyph-name="dvG_N_YA" horiz-adv-x="1175" 
d="M1003 334v241h-187q25 -38 25 -93q0 -118 -148 -164q12 -55 54 -90.5t101 -35.5q70 0 112.5 38.5t42.5 103.5zM1196 642v-67h-115v-575h-78v194q-51 -69 -162 -69q-84 0 -147 52.5t-86 148.5q-28 28 -96 28h-58q-18 0 -25.5 -9t-7.5 -29q0 -37 13 -74h-66q-28 54 -28 104
q0 75 87 75h89q88 0 144 -40q103 33 103 105q0 52 -31 89h-504v-234q0 -63 -32 -97.5t-93 -34.5q-41 0 -73 13v69q30 -14 61 -14q60 0 60 67v231h-173v67h1218z" />
    <glyph glyph-name="dvG_BA" horiz-adv-x="900" 
d="M657 173l-212 206q-29 -37 -29 -93q0 -62 39.5 -101.5t101.5 -39.5q60 0 100 28zM923 642v-67h-116v-575h-78v163q-27 -36 -74 -59t-105 -23q-87 0 -148.5 57.5t-61.5 148.5t61.5 149.5t157.5 58.5q40 0 83 -10v-69q-40 13 -78 13q-46 0 -78 -17l209 -205q34 43 34 99
v269h-501v-234q0 -63 -32 -97.5t-93 -34.5q-41 0 -73 13v69q30 -14 61 -14q60 0 60 67v231h-173v67h945z" />
    <glyph glyph-name="dvG_BHA" horiz-adv-x="845" 
d="M674 642h193v-67h-116v-575h-77v281h-197v-137h-69l-25 56q-27 60 -27 89q0 21 12 36t31 19v165q0 35 -11.5 50.5t-42.5 15.5h-117v-234q0 -63 -32 -97.5t-93 -34.5q-41 0 -73 13v69q30 -14 61 -14q60 0 60 67v231h-173v67h380q65 0 92 -28.5t27 -88.5v-178h197v295z" />
    <glyph glyph-name="dvG_BH_YA" horiz-adv-x="1226" 
d="M1055 334v241h-187q25 -38 25 -93q0 -66 -41.5 -109.5t-106.5 -62.5q12 -54 53.5 -86t101.5 -32q70 0 112.5 38.5t42.5 103.5zM621 642h627v-67h-115v-575h-78v194q-51 -69 -162 -69q-81 0 -140 42.5t-85 124.5q-62 -11 -145 -11h-46v-137h-69l-25 56q-27 60 -27 89
q0 21 12 36t31 19v165q0 35 -11.5 50.5t-42.5 15.5h-117v-234q0 -63 -32 -97.5t-93 -34.5q-41 0 -73 13v69q30 -14 61 -14q60 0 60 67v231h-173v67h380q65 0 92 -28.5t27 -88.5v-178h46q292 0 292 140q0 51 -31 88h-163v67z" />
    <glyph glyph-name="dvG_MA" horiz-adv-x="861" 
d="M689 346v229h-210v-229h210zM882 642v-67h-115v-575h-78v280h-210v-136h-68l-25 56q-27 64 -27 90q0 20 11.5 34t30.5 19v232h-173v-234q0 -63 -32 -97.5t-93 -34.5q-41 0 -73 13v69q30 -14 61 -14q60 0 60 67v231h-173v67h904z" />
    <glyph glyph-name="dvG_YA" horiz-adv-x="936" 
d="M765 334v241h-187q25 -38 25 -93q0 -118 -148 -164q12 -55 54 -90.5t101 -35.5q70 0 112.5 38.5t42.5 103.5zM958 642v-67h-115v-575h-78v194q-51 -69 -162 -69q-93 0 -159.5 63.5t-81.5 178.5q80 12 121.5 44t41.5 75q0 52 -31 89h-266v-234q0 -63 -32 -97.5t-93 -34.5
q-41 0 -73 13v69q30 -14 61 -14q60 0 60 67v231h-173v67h980z" />
    <glyph glyph-name="dvG_R_YA" horiz-adv-x="976" 
d="M805 334v241h-187q25 -38 25 -93q0 -118 -148 -164q12 -55 54 -90.5t101 -35.5q70 0 112.5 38.5t42.5 103.5zM998 642v-67h-115v-575h-78v194q-51 -69 -162 -69q-125 0 -193 105l-294 -250h-110l371 319q-10 31 -15 68q80 12 121.5 44t41.5 75q0 52 -31 89h-298v-234
q0 -63 -32.5 -97.5t-93.5 -34.5q-41 0 -73 13v69q30 -14 61 -14q60 0 60 67v231h-180v67h1020z" />
    <glyph glyph-name="dvG_LA" horiz-adv-x="1033" 
d="M1054 642v-67h-116v-575h-79v396q-26 13 -54 13q-108 0 -108 -127v-72h-78v74q0 119 -87 119q-44 0 -72.5 -36.5t-28.5 -104.5q0 -85 44 -140.5t129 -55.5q17 0 27 2v-65q-18 -3 -38 -3q-108 0 -174 74.5t-66 188.5q0 91 47 148.5t125 57.5q54 0 89 -24.5t45 -69.5
q23 98 140 98q33 0 60 -11v113h-631v-234q0 -63 -32 -97.5t-93 -34.5q-41 0 -73 13v69q30 -14 61 -14q60 0 60 67v231h-173v67h1076z" />
    <glyph glyph-name="dvG_VA" horiz-adv-x="880" 
d="M902 642v-67h-116v-575h-78v166q-52 -75 -160 -75q-80 0 -137.5 51.5t-57.5 139.5q0 82 55.5 136.5t142.5 54.5q37 0 63 -8v-69q-25 9 -59 9q-53 0 -88 -33.5t-35 -88.5q0 -58 35.5 -93t88.5 -35q70 0 111 47t41 111v262h-480v-234q0 -63 -32 -97.5t-93 -34.5
q-41 0 -73 13v69q30 -14 61 -14q60 0 60 67v231h-173v67h924z" />
    <glyph glyph-name="dvG_SA" horiz-adv-x="962" 
d="M569 333h221v242h-194v-143q0 -63 -27 -99zM983 642v-67h-115v-575h-78v265h-168q-111 0 -170 9l184 -274h-95l-187 282v62h66q57 0 77.5 22.5t20.5 71.5v137h-290v-234q0 -63 -32 -97.5t-93 -34.5q-41 0 -73 13v69q30 -14 61 -14q60 0 60 67v231h-173v67h1005z" />
    <glyph glyph-name="dvGH_NA" horiz-adv-x="646" 
d="M475 330v245h-259q-57 -31 -57 -86q0 -42 35.5 -62t90.5 -20h48v-68h-59q-56 0 -88.5 -24.5t-32.5 -68.5q0 -43 35.5 -65t85.5 -22q84 0 142.5 51t58.5 120zM668 642v-67h-116v-575h-77v186q-29 -37 -76 -62l-167 -106q-22 -12 -22 -35q0 -30 51 -79l-51 -34
q-34 19 -61 50.5t-27 65.5q0 39 45 68l71 40q-75 8 -119.5 48t-44.5 104q0 52 32.5 85t84.5 41q-44 5 -77.5 34.5t-33.5 77.5q0 55 42 91h-144v67h690z" />
    <glyph glyph-name="dvGH_MA" horiz-adv-x="914" 
d="M743 346v229h-210v-229h210zM329 339h-59q-56 0 -88.5 -24.5t-32.5 -68.5q0 -43 35.5 -65t85.5 -22q102 0 159 68q-16 41 -16 63q0 20 11.5 34t30.5 19v232h-244q-56 -30 -56 -89q0 -79 126 -79h48v-68zM936 642v-67h-115v-575h-78v280h-210v-136h-68l-10 23
q-76 -74 -191 -74q-87 0 -140.5 41.5t-53.5 111.5q0 52 31 83.5t86 42.5q-45 5 -78 33.5t-33 78.5q0 55 42 91h-140v67h958z" />
    <glyph glyph-name="dvGH_YA" horiz-adv-x="980" 
d="M808 334v241h-187q25 -38 25 -93q0 -118 -148 -164q12 -55 54 -90.5t101 -35.5q70 0 112.5 38.5t42.5 103.5zM329 339h-59q-56 0 -88.5 -24.5t-32.5 -68.5q0 -43 35.5 -65t85.5 -22q103 0 175 83q-31 55 -40 125q80 12 121.5 44t41.5 75q0 52 -31 89h-326
q-56 -30 -56 -89q0 -79 126 -79h48v-68zM1001 642v-67h-115v-575h-78v194q-51 -69 -162 -69q-99 0 -164 68q-86 -100 -218 -100q-87 0 -140.5 41.5t-53.5 111.5q0 52 31 83.5t86 42.5q-45 5 -78 33.5t-33 78.5q0 55 42 91h-140v67h1023z" />
    <glyph glyph-name="dvC_CA" horiz-adv-x="998" 
d="M1020 642v-67h-116v-575h-78v188q-24 -38 -70.5 -63t-112.5 -26q-55 0 -98.5 21t-66.5 60q-76 -81 -192 -81q-85 0 -139.5 43t-54.5 119q0 87 77 126h-141v67h342v-67q-109 0 -154.5 -34.5t-45.5 -86.5q0 -46 34.5 -74t87.5 -28q50 0 94 24t71 60v14q0 86 77 125h-112v67
h312v-67q-109 0 -154.5 -34.5t-45.5 -86.5q0 -49 32.5 -75.5t85.5 -26.5q81 0 127.5 49.5t46.5 113.5v248h-848v67h1042z" />
    <glyph glyph-name="dvC_CHA" horiz-adv-x="1027" 
d="M823 481v94h-204q-62 -34 -62 -102q0 -42 29.5 -67t71.5 -25h30v-67h-38q-53 0 -81.5 -23.5t-28.5 -64.5q0 -48 43 -76t109 -28q89 0 145 49.5t56 136.5q0 51 -28.5 80.5t-83.5 29.5q-27 0 -43 -7v65q17 7 55 7q10 0 30 -2zM1049 575h-153v-117q76 -43 76 -149
q0 -109 -79.5 -180.5t-200.5 -71.5q-82 0 -141.5 30t-80.5 85q-73 -73 -184 -73q-85 0 -139.5 43t-54.5 119q0 87 77 126h-141v67h342v-67q-109 0 -154.5 -34.5t-45.5 -86.5q0 -46 34.5 -74t87.5 -28q55 0 102 28.5t71 67.5q10 39 39 63t70 29q-36 6 -65.5 38.5t-29.5 82.5
q0 64 45 102h-546v67h1071v-67z" />
    <glyph glyph-name="dvC_CH_VA" horiz-adv-x="1038" 
d="M851 481v94h-241q-61 -33 -61 -98q0 -42 28.5 -63t71.5 -21h30v-67h-38q-51 0 -80.5 -22.5t-29.5 -58.5q0 -50 49.5 -78.5t129.5 -28.5q90 0 150 48t60 124q0 50 -28.5 79t-83.5 29q-27 0 -43 -7v65q17 7 55 7q11 0 31 -2zM845 7v93q-64 -28 -135 -28h-9q-60 0 -96 -29
t-36 -82q0 -54 34 -84t90 -30q70 0 111 47.5t41 112.5zM1060 575h-137v-116q76 -42 76 -147q0 -94 -77 -163v-453h-77v166q-52 -79 -160 -79q-81 0 -138 47.5t-57 130.5q0 89 78 136q-67 26 -97 75q-75 -73 -185 -73q-85 0 -139.5 43t-54.5 119q0 87 77 126h-141v67h342v-67
q-109 0 -154.5 -34.5t-45.5 -86.5q0 -46 34.5 -74t87.5 -28q48 0 90.5 22.5t69.5 55.5q0 49 33 81t80 38q-37 6 -66 36t-29 80q0 62 45 98h-537v67h1082v-67z" />
    <glyph glyph-name="dvC_NA" horiz-adv-x="642" 
d="M664 642v-67h-116v-575h-78v190q-23 -38 -64 -62l-172 -108q-19 -13 -19 -31q0 -38 46 -79l-51 -35q-81 56 -81 116q0 41 46 68l76 43q-67 9 -109 51.5t-42 108.5q0 87 78 125h-142v67h341v-67q-109 0 -154 -34.5t-45 -86.5q0 -49 32.5 -75.5t85.5 -26.5q81 0 127.5 49.5
t46.5 113.5v248h-492v67h686z" />
    <glyph glyph-name="dvC_MA" horiz-adv-x="947" 
d="M776 346v229h-210v-229h210zM969 642v-67h-115v-575h-78v280h-210v-136h-68l-17 38q-76 -83 -195 -83q-85 0 -139.5 43t-54.5 119q0 87 77 126h-141v67h342v-67q-109 0 -154.5 -34.5t-45.5 -86.5q0 -46 34.5 -74t87.5 -28q49 0 92 23t71 58q-9 31 -9 45q0 20 11.5 34
t30.5 19v232h-510v67h991z" />
    <glyph glyph-name="dvC_YA" horiz-adv-x="1008" 
d="M837 334v241h-187q25 -38 25 -93q0 -118 -148 -164q12 -55 54 -90.5t101 -35.5q70 0 112.5 38.5t42.5 103.5zM1030 642v-67h-115v-575h-78v194q-51 -69 -162 -69q-108 0 -175 81q-32 -46 -88 -76.5t-126 -30.5q-85 0 -139.5 43t-54.5 119q0 87 77 126h-141v67h342v-67
q-109 0 -154.5 -34.5t-45.5 -86.5q0 -46 34.5 -74t87.5 -28q54 0 100 27.5t73 67.5q-24 49 -31 108q80 12 121.5 44t41.5 75q0 52 -31 89h-588v67h1052z" />
    <glyph glyph-name="dvCH_YA" horiz-adv-x="1188" 
d="M1017 278v297h-794q-62 -34 -62 -102q0 -42 29.5 -67t71.5 -25h30v-67h-38q-53 0 -81.5 -23.5t-28.5 -64.5q0 -48 43 -76t109 -28q89 0 145 49.5t56 136.5q0 51 -28.5 80.5t-83.5 29.5q-27 0 -43 -7v65q17 7 55 7q68 0 112 -30q85 37 185 37q92 0 134.5 -33.5t42.5 -86.5
q0 -47 -37 -84.5t-94 -55.5q11 -45 47 -72.5t88 -27.5q66 0 104 42.5t38 105.5zM1215 642v-67h-120v-575h-78v132q-49 -71 -149 -71q-86 0 -146 54t-74 161q145 26 145 96q0 27 -27 40.5t-70 13.5q-65 0 -140 -26q20 -40 20 -91q0 -109 -79.5 -180.5t-200.5 -71.5
q-102 0 -166.5 45t-64.5 123q0 53 31.5 87.5t81.5 39.5q-36 6 -65.5 38.5t-29.5 82.5q0 64 45 102h-150v67h1237z" />
    <glyph glyph-name="dvJ_KA" horiz-adv-x="1207" 
d="M1229 575h-368v-143q46 48 117 48q82 0 133 -50t51 -131q0 -87 -57 -139t-142 -52q-11 0 -23 2v67q10 -2 20 -2q53 0 88 33t35 91q0 51 -31.5 83.5t-82.5 32.5q-44 0 -76 -30.5t-32 -76.5v-308h-79v144q-44 -46 -116 -46q-82 0 -133 49.5t-51 130.5q0 59 29 106h-234
q72 -43 72 -141q0 -81 -54.5 -130.5t-144.5 -49.5q-66 0 -120 22v72q54 -28 112 -28t93.5 31.5t35.5 87.5q0 67 -46.5 101.5t-128.5 34.5v67h493q43 19 91 19q15 0 23 -3v-66q-5 1 -19 1q-54 0 -89 -33t-35 -90q0 -51 32 -84t83 -33q44 0 75.5 31t31.5 77v305h-804v67h1251
v-67z" />
    <glyph glyph-name="dvJ_JA" horiz-adv-x="1050" 
d="M1072 642v-67h-116v-575h-78v384h-201q72 -43 72 -141q0 -81 -54.5 -130.5t-144.5 -49.5q-66 0 -120 22v72q54 -28 112 -28t93.5 31.5t35.5 87.5q0 67 -46.5 101.5t-128.5 34.5h-219q72 -43 72 -141q0 -81 -54.5 -130.5t-144.5 -49.5q-66 0 -120 22v72q54 -28 112 -28
t93.5 31.5t35.5 87.5q0 67 -46.5 101.5t-128.5 34.5v67h782v124h-900v67h1094z" />
    <glyph glyph-name="dvJx_JxA" horiz-adv-x="1050" 
d="M154 -33q22 0 38 -15.5t16 -37.5t-15.5 -37t-38.5 -15q-22 0 -37 15t-15 37t15 37.5t37 15.5zM554 -33q22 0 38 -15.5t16 -37.5t-15.5 -37t-38.5 -15q-22 0 -37 15t-15 37t15 37.5t37 15.5zM1072 642v-67h-116v-575h-78v384h-201q72 -43 72 -141q0 -81 -54.5 -130.5
t-144.5 -49.5q-66 0 -120 22v72q54 -28 112 -28t93.5 31.5t35.5 87.5q0 67 -46.5 101.5t-128.5 34.5h-219q72 -43 72 -141q0 -81 -54.5 -130.5t-144.5 -49.5q-66 0 -120 22v72q54 -28 112 -28t93.5 31.5t35.5 87.5q0 67 -46.5 101.5t-128.5 34.5v67h782v124h-900v67h1094z
" />
    <glyph glyph-name="dvJ_J_NYA" horiz-adv-x="1175" 
d="M1213 642v-67h-132v-575h-78v424h-322q-91 0 -91 -58q0 -30 27 -44.5t93 -15.5q179 -2 179 -137q0 -67 -49.5 -109.5t-121.5 -42.5q-88 0 -144 51v-116h-77v226h71q17 -42 57.5 -70t88.5 -28q42 0 68.5 25t26.5 64q0 42 -33 57.5t-94 15.5q-84 0 -128.5 31.5t-44.5 89.5
q0 7 2 21h-234q72 -43 72 -141q0 -81 -54.5 -130.5t-144.5 -49.5q-66 0 -120 22v72q54 -28 112 -28t93.5 31.5t35.5 87.5q0 67 -46.5 101.5t-128.5 34.5v67h452q48 40 131 40h324v84h-1025v67h1235z" />
    <glyph glyph-name="dvJ_J_YA" horiz-adv-x="1438" 
d="M1266 334v241h-187q25 -38 25 -93q0 -118 -149 -164q48 -126 157 -126q69 0 111.5 38.5t42.5 103.5zM1460 642v-67h-116v-575h-78v194q-50 -69 -162 -69q-52 0 -90.5 14.5t-60 37t-38 50t-30.5 55.5t-31 50.5t-46 37t-69 14.5h-62q72 -43 72 -141q0 -81 -54.5 -130.5
t-144.5 -49.5q-66 0 -120 22v72q54 -28 112 -28t93.5 31.5t35.5 87.5q0 65 -44.5 99.5t-122.5 36.5h-227q72 -43 72 -141q0 -81 -54.5 -130.5t-144.5 -49.5q-66 0 -120 22v72q54 -28 112 -28t93.5 31.5t35.5 87.5q0 67 -46.5 101.5t-128.5 34.5v67h643q121 0 178 -71
q109 32 109 111q0 48 -30 84h-1018v67h1482z" />
    <glyph glyph-name="dvJ_J_VA" horiz-adv-x="1394" 
d="M1416 642v-67h-116v-575h-78v166q-52 -75 -160 -75q-80 0 -137.5 51.5t-57.5 139.5q0 57 28 102h-216q72 -43 72 -141q0 -81 -54.5 -130.5t-144.5 -49.5q-66 0 -120 22v72q54 -28 112 -28t93.5 31.5t35.5 87.5q0 67 -46.5 101.5t-127.5 34.5h-222q72 -43 72 -141
q0 -81 -54.5 -130.5t-144.5 -49.5q-66 0 -120 22v72q54 -28 112 -28t93.5 31.5t35.5 87.5q0 67 -46.5 101.5t-128.5 34.5v67h872q44 22 97 22q37 0 63 -8v-69q-26 9 -59 9q-53 0 -88 -33.5t-35 -88.5q0 -58 35.5 -93t88.5 -35q70 0 111 47t41 111v262h-1244v67h1438z" />
    </font>
</defs>
</svg>
