<?xml version="1.0" standalone="no"?>
<!DOCTYPE svg PUBLIC "-//W3C//DTD SVG 1.1//EN" "http://www.w3.org/Graphics/SVG/1.1/DTD/svg11.dtd" >
<svg xmlns="http://www.w3.org/2000/svg" xmlns:xlink="http://www.w3.org/1999/xlink" version="1.1">
<metadata>
Created by FontForge 20170731 at Fri May  5 14:18:42 2017
 By Aleksey,,,
Copyright (c) 2014 Indian Type Foundry (info@indiantypefoundry.com)
</metadata>
<defs>
<font id="Hind-Light" horiz-adv-x="0" >
  <font-face 
    font-family="Hind Light"
    font-weight="300"
    font-stretch="normal"
    units-per-em="1000"
    panose-1="2 0 0 0 0 0 0 0 0 0"
    ascent="800"
    descent="-200"
    x-height="507"
    cap-height="674"
    bbox="-420 -434 2111 991"
    underline-thickness="50"
    underline-position="-200"
    unicode-range="U+000D-FB02"
  />
<missing-glyph horiz-adv-x="750" 
d="M180 0v701h390v-701h-390zM234 651v-601h282v601h-282z" />
    <glyph glyph-name="fi" unicode="fi" horiz-adv-x="498" 
d="M422 507v-507h-61v455h-177v-455h-61v455h-93v52h93v54q0 69 36.5 110t105.5 41q66 0 125 -32v-60q-65 34 -128 34q-78 0 -78 -94v-53h238z" />
    <glyph glyph-name="fl" unicode="fl" horiz-adv-x="488" 
d="M123 507v54q0 70 36.5 110.5t104.5 40.5q78 0 148 -45v-667h-61v635q-47 19 -84 19q-83 0 -83 -94v-53h116v-52h-116v-455h-61v455h-93v52h93z" />
    <glyph glyph-name="f_f" unicode="ff" horiz-adv-x="563" 
d="M361 507v54q0 37 11 68q-48 25 -105 25q-83 0 -83 -94v-53h177zM539 706v-60q-21 8 -44 8q-30 0 -51.5 -23.5t-21.5 -70.5v-53h116v-52h-116v-455h-61v455h-177v-455h-61v455h-93v52h93v54q0 70 37.5 110.5t109.5 40.5q67 0 133 -35q35 35 95 35q19 0 41 -6z" />
    <glyph glyph-name="f_f_i" unicode="ffi" horiz-adv-x="736" 
d="M361 507v54q0 37 11 68q-48 25 -105 25q-83 0 -83 -94v-53h177zM660 507v-507h-61v455h-177v-455h-61v455h-177v-455h-61v455h-93v52h93v54q0 70 37.5 110.5t109.5 40.5q67 0 133 -35q38 35 100 35q66 0 125 -32v-60q-65 34 -128 34q-78 0 -78 -94v-53h238z" />
    <glyph glyph-name="f_f_l" unicode="ffl" horiz-adv-x="727" 
d="M362 507v54q0 37 11 68q-48 25 -106 25q-83 0 -83 -94v-53h178zM123 507v54q0 70 37.5 110.5t109.5 40.5q67 0 133 -35q38 35 100 35q78 0 148 -45v-667h-61v635q-47 19 -84 19q-83 0 -83 -94v-53h116v-52h-116v-455h-61v455h-178v-455h-61v455h-93v52h93z" />
    <glyph glyph-name=".notdef" horiz-adv-x="750" 
d="M180 0v701h390v-701h-390zM234 651v-601h282v601h-282z" />
    <glyph glyph-name=".null" 
 />
    <glyph glyph-name="nonmarkingreturn" horiz-adv-x="333" 
 />
    <glyph glyph-name="NULL" 
 />
    <glyph glyph-name="NULL" 
 />
    <glyph glyph-name="CR" unicode="&#xd;" 
 />
    <glyph glyph-name="space" unicode=" " horiz-adv-x="242" 
 />
    <glyph glyph-name="exclam" unicode="!" horiz-adv-x="241" 
d="M90 196v478h61v-478h-61zM69 42q0 21 14.5 36t35.5 15q22 0 37 -15t15 -36q0 -22 -15 -36t-37 -14t-36 14t-14 36z" />
    <glyph glyph-name="quotedbl" unicode="&#x22;" horiz-adv-x="271" 
d="M45 451v230h57v-230h-57zM169 451v230h57v-230h-57z" />
    <glyph glyph-name="numbersign" unicode="#" horiz-adv-x="697" 
d="M425 225l47 224h-190l-47 -224h190zM642 449h-112l-47 -224h102v-51h-113l-36 -174h-59l37 174h-190l-37 -174h-57l36 174h-111v51h122l47 224h-110v51h121l36 174h59l-37 -174h190l37 174h57l-36 -174h101v-51z" />
    <glyph glyph-name="dollar" unicode="$" horiz-adv-x="502" 
d="M408 650v-69q-24 16 -63 27t-76 11q-67 0 -107 -31.5t-40 -83.5q0 -27 11.5 -48.5t33.5 -37t45.5 -27.5t55.5 -26q11 -4 17 -7q37 -16 60.5 -29.5t49.5 -35t39 -51.5t13 -68q0 -83 -53.5 -129.5t-138.5 -51.5v-100h-55v102q-79 6 -140 42v69q30 -23 77.5 -38t96.5 -15
q71 0 110.5 31t39.5 89q0 27 -11.5 48.5t-34 37t-46 27t-56.5 25.5q-3 1 -5 2t-5 2t-5 2q-37 16 -60.5 29t-50 35t-39.5 51.5t-13 67.5q0 81 55.5 128t137.5 52v101h55v-103q61 -7 102 -28z" />
    <glyph glyph-name="percent" unicode="%" horiz-adv-x="814" 
d="M200 -1l352 655h62l-353 -655h-61zM464 143q0 62 44 106t106 44t106 -44.5t44 -105.5q0 -62 -44 -106t-106 -44t-106 44t-44 106zM50 510q0 62 44 106t106 44t106 -44t44 -106t-44 -106t-106 -44t-106 44t-44 106zM106 510q0 -39 27.5 -66.5t66.5 -27.5t66.5 27.5
t27.5 66.5t-27.5 66.5t-66.5 27.5t-66.5 -27.5t-27.5 -66.5zM520 143q0 -39 27.5 -66.5t66.5 -27.5t66.5 27.5t27.5 66.5t-27.5 66.5t-66.5 27.5t-66.5 -27.5t-27.5 -66.5z" />
    <glyph glyph-name="ampersand" unicode="&#x26;" horiz-adv-x="693" 
d="M309 52q108 0 174 61q-200 183 -211 194q-70 -30 -104.5 -59t-34.5 -74q0 -56 49.5 -89t126.5 -33zM312 631q-50 0 -81.5 -27.5t-31.5 -76.5q0 -34 17 -66t70 -87q75 34 109.5 68t34.5 81q0 45 -30.5 76.5t-87.5 31.5zM692 0h-88l-77 72q-78 -80 -215 -80
q-107 0 -175 50.5t-68 131.5q0 59 41 100t120 74q-53 56 -74.5 96t-21.5 84q0 72 48.5 117.5t131.5 45.5q79 0 129.5 -49.5t50.5 -119.5q0 -58 -38 -104t-127 -85q56 -51 190 -174q24 42 30 100h61q-9 -81 -46 -141z" />
    <glyph glyph-name="quotesingle" unicode="'" horiz-adv-x="147" 
d="M45 451v230h57v-230h-57z" />
    <glyph glyph-name="parenleft" unicode="(" horiz-adv-x="303" 
d="M310 -196h-70q-160 204 -160 458q0 119 41 236t111 209h71q-158 -217 -158 -450q0 -236 165 -453z" />
    <glyph glyph-name="parenright" unicode=")" horiz-adv-x="303" 
d="M71 707q70 -92 111 -209t41 -236q0 -254 -160 -458h-70q165 217 165 453q0 233 -158 450h71z" />
    <glyph glyph-name="asterisk" unicode="*" horiz-adv-x="381" 
d="M226 504h-8q16 -7 31 -28l56 -78l-40 -30l-57 78q-15 20 -18 39q-2 -19 -17 -40l-57 -77l-41 29l57 78q14 19 32 29q-4 -1 -13 -1q-16 0 -31 5l-91 30l15 48l92 -30q21 -7 37 -20q-9 15 -9 42v96h50v-96q0 -22 -7 -41q12 13 36 21l92 29l16 -47l-92 -31q-15 -5 -33 -5z
" />
    <glyph glyph-name="plus" unicode="+" horiz-adv-x="544" 
d="M484 368v-56h-188v-192h-57v192h-179v56h179v192h57v-192h188z" />
    <glyph glyph-name="comma" unicode="," horiz-adv-x="207" 
d="M-8 -122l91 214h90l-127 -214h-54z" />
    <glyph glyph-name="hyphen" unicode="-" horiz-adv-x="345" 
d="M60 243v55h225v-55h-225z" />
    <glyph glyph-name="period" unicode="." horiz-adv-x="142" 
d="M20 43q0 22 14.5 36.5t36.5 14.5t36.5 -14.5t14.5 -36.5t-14.5 -36.5t-36.5 -14.5t-36.5 14.5t-14.5 36.5z" />
    <glyph glyph-name="slash" unicode="/" horiz-adv-x="387" 
d="M-11 -102l366 809h62l-367 -809h-61z" />
    <glyph glyph-name="zero" unicode="0" horiz-adv-x="543" 
d="M45 329q0 152 63 241.5t161 89.5q102 0 165.5 -89t63.5 -242q0 -152 -60 -244.5t-169 -92.5q-100 0 -162 92.5t-62 244.5zM108 329q0 -130 47 -203.5t114 -73.5q75 0 120.5 72t45.5 205q0 131 -47.5 201t-118.5 70q-64 0 -112.5 -71t-48.5 -200z" />
    <glyph glyph-name="one" unicode="1" horiz-adv-x="308" 
d="M20 495v69l147 90h61v-654h-61v587z" />
    <glyph glyph-name="two" unicode="2" horiz-adv-x="492" 
d="M127 55h320v-55h-407v55q320 245 320 408q0 68 -38.5 103.5t-103.5 35.5q-75 0 -154 -58v62q68 54 156 54q84 0 144 -50.5t60 -143.5q0 -174 -297 -411z" />
    <glyph glyph-name="three" unicode="3" horiz-adv-x="461" 
d="M58 562v62q54 36 130 36q96 0 147 -49t51 -120q0 -114 -104 -159q56 -13 90 -53t34 -99q0 -80 -54 -133t-153 -53q-90 0 -159 33v62q71 -37 160 -37q67 0 105 36t38 94q0 59 -42 90t-115 31h-44v55h44q56 0 96 34.5t40 92.5t-35.5 87.5t-97.5 29.5q-70 0 -131 -40z" />
    <glyph glyph-name="four" unicode="4" horiz-adv-x="534" 
d="M108 219h240v400zM509 219v-55h-101v-164h-60v164h-303v55l262 435h101v-435h101z" />
    <glyph glyph-name="five" unicode="5" horiz-adv-x="512" 
d="M160 599v-218q49 11 87 11q97 0 156 -52t59 -140q0 -96 -62 -152t-169 -56q-96 0 -166 33v62q64 -37 156 -37q177 0 177 153q0 63 -42 97t-106 34q-73 0 -152 -35v355h318v-55h-256z" />
    <glyph glyph-name="six" unicode="6" horiz-adv-x="523" 
d="M285 49q62 0 98.5 46t36.5 120q0 68 -36.5 108t-94.5 40q-50 0 -96 -22.5t-76 -56.5q2 -114 48 -174.5t120 -60.5zM439 660v-62q-41 19 -90 19q-100 0 -159 -77t-70 -192q32 34 78 53.5t92 19.5q91 0 142.5 -57t51.5 -151q0 -100 -55 -160.5t-144 -60.5q-109 0 -168.5 84
t-59.5 219q0 105 31.5 189.5t99.5 137.5t162 53q47 0 89 -15z" />
    <glyph glyph-name="seven" unicode="7" horiz-adv-x="443" 
d="M10 654h423v-55l-275 -599h-66l276 599h-358v55z" />
    <glyph glyph-name="eight" unicode="8" horiz-adv-x="533" 
d="M264 50q73 0 112 36.5t39 89.5q0 51 -37.5 86.5t-113.5 34.5q-73 -1 -109.5 -38.5t-36.5 -92.5q0 -49 38 -82.5t108 -33.5zM129 479q0 -62 38.5 -93t99.5 -31q58 0 94.5 33t36.5 93q0 52 -35.5 86.5t-99.5 34.5q-61 0 -97.5 -35.5t-36.5 -87.5zM346 327q62 -16 97 -56
t35 -104q0 -79 -62 -127t-153 -48q-87 0 -147.5 46.5t-60.5 123.5q0 62 34.5 104t93.5 59q-55 17 -86 57.5t-31 96.5q0 85 59.5 133t137.5 48q80 0 139 -47.5t59 -135.5q0 -53 -30.5 -93t-84.5 -57z" />
    <glyph glyph-name="nine" unicode="9" horiz-adv-x="496" 
d="M392 361v19q0 43 -7 80t-23 71t-47.5 53.5t-74.5 19.5q-62 0 -99 -41.5t-37 -112.5q0 -76 39.5 -116.5t107.5 -40.5q87 0 141 68zM63 11v62q53 -23 112 -23q189 0 213 248q-52 -62 -152 -62q-78 0 -137 58.5t-59 155.5q0 91 53.5 151.5t145.5 60.5q108 0 160.5 -81
t52.5 -201q0 -179 -67.5 -283.5t-209.5 -104.5q-58 0 -112 19z" />
    <glyph glyph-name="colon" unicode=":" horiz-adv-x="222" 
d="M60 369q0 21 14.5 36t35.5 15q22 0 37 -15t15 -36q0 -22 -15 -36t-37 -14t-36 14t-14 36zM60 49q0 21 14.5 36t35.5 15q22 0 37 -15t15 -36q0 -22 -15 -36t-37 -14t-36 14t-14 36z" />
    <glyph glyph-name="semicolon" unicode=";" horiz-adv-x="207" 
d="M69 368q0 21 14.5 36t35.5 15q22 0 37 -15t15 -36q0 -22 -15 -36t-37 -14t-36 14t-14 36zM-8 -122l91 214h90l-127 -214h-54z" />
    <glyph glyph-name="less" unicode="&#x3c;" horiz-adv-x="510" 
d="M60 311v60l400 191v-65q-239 -110 -333 -155l333 -157v-65z" />
    <glyph glyph-name="equal" unicode="=" horiz-adv-x="544" 
d="M60 410v55h424v-55h-424zM60 215v56h424v-56h-424z" />
    <glyph glyph-name="greater" unicode="&#x3e;" horiz-adv-x="510" 
d="M450 371v-60l-400 -191v65q237 110 333 157l-333 155v65z" />
    <glyph glyph-name="question" unicode="?" horiz-adv-x="450" 
d="M40 573v65q27 18 71.5 31t89.5 13q96 0 152.5 -48t56.5 -135q0 -85 -59.5 -132t-145.5 -55v-116h-61v170q94 0 148 33.5t54 100.5q0 55 -36 89.5t-108 34.5q-82 0 -162 -51zM123 42q0 21 14.5 36t35.5 15q22 0 37 -15t15 -36q0 -22 -15 -36t-37 -14t-36 14t-14 36z" />
    <glyph glyph-name="at" unicode="@" horiz-adv-x="886" 
d="M416 77q42 0 80 29t56 81q0 13 4 55q-8 54 -34 82t-79 28q-56 0 -91 -46.5t-35 -110.5q0 -53 27 -85.5t72 -32.5zM574 -58l-4 -65q-60 -32 -170 -32q-154 0 -244.5 97.5t-90.5 252.5q0 174 122 288t297 114q149 0 250.5 -92t101.5 -245q0 -114 -52.5 -174t-117.5 -60
q-86 0 -109 80q-55 -83 -146 -83q-72 0 -113.5 50t-41.5 126q0 86 54 147t136 61q80 0 118 -62q1 23 3 56h53l-18 -169q-3 -28 -3 -55q0 -100 71 -100q46 0 77.5 51t31.5 129q0 134 -84 210.5t-213 76.5q-141 0 -248 -98.5t-107 -249.5q0 -143 80.5 -219.5t194.5 -76.5
q101 0 172 42z" />
    <glyph glyph-name="A" unicode="A" horiz-adv-x="637" 
d="M189 242h261l-15 43l-114 337q-13 -40 -117 -338zM532 0l-64 187h-298l-65 -187h-67l238 674h90l233 -674h-67z" />
    <glyph glyph-name="B" unicode="B" horiz-adv-x="562" 
d="M142 55h172q65 0 101.5 32.5t36.5 93.5q0 63 -41.5 97.5t-115.5 34.5h-153v-258zM142 619v-251h121q87 0 128 37.5t41 95.5q0 50 -39.5 84t-117.5 34h-133zM80 674h188q102 0 165.5 -46.5t63.5 -128.5q0 -60 -33.5 -102.5t-86.5 -53.5q57 -7 98.5 -49t41.5 -115
q0 -81 -52.5 -130t-150.5 -49h-234v674z" />
    <glyph glyph-name="C" unicode="C" horiz-adv-x="599" 
d="M557 647v-65q-44 23 -78 32.5t-94 9.5q-116 0 -193.5 -78.5t-77.5 -204.5q0 -132 76.5 -211t203.5 -79q99 0 165 52v-68q-61 -43 -168 -43q-153 0 -247 93t-94 256q0 152 97 247t240 95q99 0 170 -36z" />
    <glyph glyph-name="D" unicode="D" horiz-adv-x="655" 
d="M142 57h135q69 0 122 24t84 65t46.5 90t15.5 105q0 115 -76.5 195.5t-196.5 80.5h-130v-560zM80 674h192q148 0 243 -92t95 -241q0 -91 -35 -166.5t-112.5 -125t-185.5 -49.5h-197v674z" />
    <glyph glyph-name="E" unicode="E" horiz-adv-x="490" 
d="M142 57h303v-57h-365v674h359v-57h-297v-252h262v-57h-262v-251z" />
    <glyph glyph-name="F" unicode="F" horiz-adv-x="484" 
d="M439 617h-297v-257h262v-57h-262v-303h-62v674h359v-57z" />
    <glyph glyph-name="G" unicode="G" horiz-adv-x="661" 
d="M591 371v-321q-79 -58 -200 -58q-154 0 -247.5 92.5t-93.5 253.5q0 152 91.5 250t231.5 98q119 0 196 -47v-69q-77 54 -188 54q-118 0 -192.5 -78.5t-74.5 -207.5q0 -133 74 -208.5t204 -75.5q77 0 137 31v231h-159v55h221z" />
    <glyph glyph-name="H" unicode="H" horiz-adv-x="632" 
d="M490 674h62v-674h-62v315h-348v-315h-62v674h62v-302h348v302z" />
    <glyph glyph-name="I" unicode="I" horiz-adv-x="232" 
d="M85 0v674h62v-674h-62z" />
    <glyph glyph-name="J" unicode="J" horiz-adv-x="349" 
d="M30 23v63q40 -27 86 -27q91 0 91 96v519h62v-509q0 -165 -147 -165q-54 0 -92 23z" />
    <glyph glyph-name="K" unicode="K" horiz-adv-x="549" 
d="M80 0v674h62v-674h-62zM239 332l280 -332h-82l-277 332l267 342h78z" />
    <glyph glyph-name="L" unicode="L" horiz-adv-x="474" 
d="M142 57h297v-57h-359v674h62v-617z" />
    <glyph glyph-name="M" unicode="M" horiz-adv-x="848" 
d="M75 0l47 674h85l88 -247l119 -343q69 190 126 343l92 247h85l57 -674h-62l-23 267l-27 326q-60 -167 -119 -326l-93 -250h-73l-88 250l-112 319q-9 -151 -21 -319l-19 -267h-62z" />
    <glyph glyph-name="N" unicode="N" horiz-adv-x="667" 
d="M80 0v674h85l172 -285l190 -316q-2 104 -2 315v286h62v-674h-85l-171 283l-191 318q2 -108 2 -316v-285h-62z" />
    <glyph glyph-name="O" unicode="O" horiz-adv-x="691" 
d="M50 340q0 159 79.5 253.5t215.5 94.5q140 0 218 -93.5t78 -254.5q0 -160 -79 -254t-215 -94q-134 0 -215.5 95t-81.5 253zM114 340q0 -133 63.5 -210.5t169.5 -77.5q110 0 170 76.5t60 211.5q0 136 -60.5 212t-171.5 76q-108 0 -169.5 -76.5t-61.5 -211.5z" />
    <glyph glyph-name="P" unicode="P" horiz-adv-x="540" 
d="M142 311h118q79 0 125.5 42t46.5 105q0 74 -48 117.5t-135 43.5h-107v-308zM80 674h162q118 0 185.5 -59.5t67.5 -156.5q0 -84 -65.5 -143t-176.5 -59h-111v-256h-62v674z" />
    <glyph glyph-name="Q" unicode="Q" horiz-adv-x="701" 
d="M114 340q0 -133 63.5 -210.5t169.5 -77.5q110 0 170 76.5t60 211.5q0 136 -60.5 212t-171.5 76q-108 0 -169.5 -76.5t-61.5 -211.5zM668 -111l-65 -28l-202 135q-23 -4 -54 -4q-134 0 -215.5 95t-81.5 253q0 159 79.5 253.5t215.5 94.5q140 0 218 -93.5t78 -254.5
q0 -119 -45 -203t-126 -120z" />
    <glyph glyph-name="R" unicode="R" horiz-adv-x="531" 
d="M142 329h109q74 0 114 41t40 102q0 147 -166 147h-97v-290zM506 0h-74l-169 274h-19h-102v-274h-62v674h152q118 0 176.5 -53.5t58.5 -151.5q-2 -68 -38 -117t-102 -67z" />
    <glyph glyph-name="S" unicode="S" horiz-adv-x="527" 
d="M423 650v-69q-24 16 -63 27t-76 11q-67 0 -107 -31.5t-40 -83.5q0 -27 10.5 -48t35.5 -38.5t43.5 -27t56.5 -25.5q35 -15 53 -23.5t46 -26.5t42.5 -35.5t26 -45t11.5 -60.5q0 -88 -59 -134.5t-151 -46.5q-104 0 -177 44v69q30 -23 77.5 -38t96.5 -15q71 0 110.5 31
t39.5 89q0 44 -30 71.5t-87 52.5q-8 4 -35 15.5t-38 16.5t-34 17t-33.5 21t-26.5 24t-23 30t-13 35.5t-6 43.5q0 85 61 132.5t149 47.5q84 0 140 -30z" />
    <glyph glyph-name="T" unicode="T" horiz-adv-x="465" 
d="M450 674v-57h-187v-617h-62v617h-186v57h435z" />
    <glyph glyph-name="U" unicode="U" horiz-adv-x="639" 
d="M497 253v421h62v-419q0 -130 -63 -196.5t-178 -66.5q-113 0 -175.5 65t-62.5 190v427h62v-426q0 -101 47.5 -148.5t128.5 -47.5q179 0 179 201z" />
    <glyph glyph-name="V" unicode="V" horiz-adv-x="631" 
d="M591 674l-237 -674h-85l-229 674h67l89 -267l116 -352l120 352l92 267h67z" />
    <glyph glyph-name="W" unicode="W" horiz-adv-x="929" 
d="M432 664h73l75 -241l112 -364q55 256 79 363l56 252h62l-153 -674h-85l-67 213l-114 370q-38 -138 -107 -370l-63 -213h-85l-175 674h65l63 -250l91 -361q67 239 103 361z" />
    <glyph glyph-name="X" unicode="X" horiz-adv-x="600" 
d="M260 340l-205 334h72l167 -278l167 278h72l-204 -334l229 -340h-72l-191 287l-181 -287h-72z" />
    <glyph glyph-name="Y" unicode="Y" horiz-adv-x="580" 
d="M479 674h71l-230 -422v-252h-62v252l-228 422h71l53 -99l135 -260q8 19 137 260z" />
    <glyph glyph-name="Z" unicode="Z" horiz-adv-x="555" 
d="M490 674v-55l-370 -564h385v-55h-455v55l370 564h-366v55h436z" />
    <glyph glyph-name="bracketleft" unicode="[" horiz-adv-x="296" 
d="M296 652h-154v-775h154v-56h-216v886h216v-55z" />
    <glyph glyph-name="backslash" unicode="\" horiz-adv-x="386" 
d="M32 707l366 -810h-62l-366 810h62z" />
    <glyph glyph-name="bracketright" unicode="]" horiz-adv-x="296" 
d="M216 707v-886h-216v56h154v775h-154v55h216z" />
    <glyph glyph-name="asciicircum" unicode="^" horiz-adv-x="453" 
d="M405 332h-64l-113 226l-116 -226h-64l140 262h82z" />
    <glyph glyph-name="underscore" unicode="_" horiz-adv-x="565" 
d="M30 -82v55h505v-55h-505z" />
    <glyph glyph-name="grave" unicode="`" horiz-adv-x="400" 
d="M191 798l102 -150h-55l-128 150h81z" />
    <glyph glyph-name="a" unicode="a" horiz-adv-x="486" 
d="M355 241h-99q-71 0 -106 -27.5t-35 -68.5q0 -42 27.5 -68t80.5 -26q60 0 96 33t36 84v73zM87 414v66q58 35 143 35q186 0 186 -195v-320h-61v59q-42 -64 -146 -64q-70 0 -114.5 41.5t-44.5 106.5q0 73 56.5 113.5t149.5 40.5h99v23q0 68 -29 102.5t-97 34.5
q-79 0 -142 -43z" />
    <glyph glyph-name="b" unicode="b" horiz-adv-x="559" 
d="M300 50q65 0 107.5 55t42.5 142q0 101 -44 155.5t-112 54.5q-24 0 -48.5 -9.5t-49 -31t-40 -63t-15.5 -97.5q0 -111 47 -158.5t112 -47.5zM141 707v-276q56 84 155 84q96 0 157 -74.5t61 -192.5q0 -107 -57 -181.5t-159 -74.5q-104 0 -157 82v-74h-61v707h61z" />
    <glyph glyph-name="c" unicode="c" horiz-adv-x="472" 
d="M109 251q0 -86 53 -145t151 -59q61 0 104 32v-62q-43 -29 -111 -29q-123 0 -192 77.5t-69 186.5q0 106 70.5 185t190.5 79q62 0 111 -27v-62q-45 30 -105 30q-93 0 -148 -60.5t-55 -145.5z" />
    <glyph glyph-name="d" unicode="d" horiz-adv-x="555" 
d="M259 50q65 0 112 47.5t47 158.5q0 56 -15.5 97.5t-40 63t-49 31t-48.5 9.5q-68 0 -112 -54.5t-44 -155.5q0 -87 42.5 -142t107.5 -55zM418 707h61v-707h-61v74q-53 -82 -157 -82q-102 0 -159 74.5t-57 181.5q0 118 61 192.5t157 74.5q99 0 155 -84v276z" />
    <glyph glyph-name="e" unicode="e" horiz-adv-x="519" 
d="M408 282v23q0 69 -38.5 110t-103.5 41q-64 0 -107 -45t-50 -129h299zM439 87v-62q-60 -30 -140 -30q-113 0 -183.5 70.5t-70.5 185.5q0 122 62 192t161 70q93 0 148 -61t55 -172q0 -34 -4 -54h-358q7 -84 58 -128.5t135 -44.5q86 0 137 34z" />
    <glyph glyph-name="f" unicode="f" horiz-adv-x="325" 
d="M301 706v-60q-21 8 -44 8q-30 0 -51.5 -23.5t-21.5 -70.5v-53h116v-52h-116v-455h-61v455h-93v52h93v54q0 69 36 110t101 41q19 0 41 -6z" />
    <glyph glyph-name="g" unicode="g" horiz-adv-x="539" 
d="M257 70q57 0 104 44.5t47 136.5q0 105 -45 155.5t-101 50.5q-71 0 -112 -56t-41 -145q0 -91 46 -138.5t102 -47.5zM408 507h61v-468q0 -115 -62 -172.5t-160 -57.5q-87 0 -148 29v60q62 -31 143 -31q76 0 121 41.5t45 130.5v66q-51 -93 -152 -93q-88 0 -149.5 65
t-61.5 176q0 114 56.5 188t148.5 74q109 0 158 -97v89z" />
    <glyph glyph-name="h" unicode="h" horiz-adv-x="529" 
d="M137 707v-287q46 95 161 95q73 0 117 -45t44 -116v-354h-61v335q0 59 -30 90t-79 31q-62 0 -107 -47.5t-45 -128.5v-280h-61v707h61z" />
    <glyph glyph-name="i" unicode="i" horiz-adv-x="221" 
d="M80 0v507h61v-507h-61zM68 669q0 18 12 30.5t30 12.5t30.5 -12.5t12.5 -30.5t-12.5 -30t-30.5 -12t-30 12t-12 30z" />
    <glyph glyph-name="j" unicode="j" horiz-adv-x="216" 
d="M-47 -180v60q35 -16 70 -16q57 0 57 74v569h61v-571q0 -62 -31.5 -96t-87.5 -34q-33 0 -69 14zM67 669q0 18 12 30.5t30 12.5t30.5 -12.5t12.5 -30.5t-12.5 -30t-30.5 -12t-30 12t-12 30z" />
    <glyph glyph-name="k" unicode="k" horiz-adv-x="462" 
d="M76 0v707h61v-707h-61zM226 266l214 -266h-76l-212 266l206 241h75z" />
    <glyph glyph-name="l" unicode="l" horiz-adv-x="221" 
d="M80 0v707h61v-707h-61z" />
    <glyph glyph-name="m" unicode="m" horiz-adv-x="807" 
d="M137 507v-83q43 91 142 91q122 0 150 -100q47 100 150 100q80 0 119 -44.5t39 -116.5v-354h-61v335q0 121 -106 121q-52 0 -92.5 -48t-40.5 -128v-280h-61v335q0 121 -106 121q-52 0 -92.5 -48t-40.5 -128v-280h-61v507h61z" />
    <glyph glyph-name="n" unicode="n" horiz-adv-x="529" 
d="M137 507v-87q47 95 161 95q73 0 117 -45t44 -116v-354h-61v335q0 59 -30 90t-79 31q-62 0 -107 -47.5t-45 -128.5v-280h-61v507h61z" />
    <glyph glyph-name="o" unicode="o" horiz-adv-x="561" 
d="M278 -9q-107 0 -170 74t-63 186q0 111 65 187t168 76q113 0 175.5 -74.5t62.5 -188.5q0 -113 -63.5 -186.5t-174.5 -73.5zM278 456q-79 0 -124 -60t-45 -145q0 -83 46.5 -142.5t122.5 -59.5q83 0 128.5 58.5t45.5 143.5q0 88 -43 146.5t-131 58.5z" />
    <glyph glyph-name="p" unicode="p" horiz-adv-x="555" 
d="M290 50q68 0 112 54.5t44 155.5q0 87 -42.5 142t-107.5 55t-112 -47.5t-47 -158.5q0 -56 15.5 -97.5t40 -63t49 -31t48.5 -9.5zM137 507v-74q53 82 157 82q102 0 159 -74.5t57 -181.5q0 -118 -61 -192.5t-157 -74.5q-99 0 -155 84v-276h-61v707h61z" />
    <glyph glyph-name="q" unicode="q" horiz-adv-x="555" 
d="M265 50q24 0 48.5 9.5t49 31t40 63t15.5 97.5q0 111 -47 158.5t-112 47.5t-107.5 -55t-42.5 -142q0 -101 44 -155.5t112 -54.5zM418 507h61v-707h-61v276q-56 -84 -155 -84q-96 0 -157 74.5t-61 192.5q0 107 57 181.5t159 74.5q104 0 157 -82v74z" />
    <glyph glyph-name="r" unicode="r" horiz-adv-x="314" 
d="M137 507v-86q42 92 142 92q7 0 25 -2v-62q-20 6 -40 6q-54 0 -90.5 -53.5t-36.5 -118.5v-283h-61v507h61z" />
    <glyph glyph-name="s" unicode="s" horiz-adv-x="406" 
d="M341 489v-61q-47 27 -127 27q-44 0 -69.5 -20.5t-25.5 -53.5q0 -20 7.5 -35t26 -27.5t31.5 -18.5t42 -18q70 -28 107.5 -61.5t37.5 -90.5q0 -63 -43.5 -99.5t-119.5 -36.5q-92 0 -148 30v63q67 -38 144 -38q51 0 77.5 21t26.5 55q0 40 -27.5 62t-90.5 47q-61 24 -97 56
t-36 88q0 61 45 97.5t113 36.5q82 0 126 -23z" />
    <glyph glyph-name="t" unicode="t" horiz-adv-x="364" 
d="M170 455v-315q0 -87 81 -87q40 0 68 23v-62q-29 -19 -67 -19q-144 0 -144 148v312h-83v52h83v127h62v-127h145v-52h-145z" />
    <glyph glyph-name="u" unicode="u" horiz-adv-x="529" 
d="M392 507h61v-507h-61v91q-40 -98 -161 -98q-74 0 -117.5 44.5t-43.5 117.5v352h61v-335q0 -58 30.5 -89t80.5 -31q67 0 108.5 48t41.5 125v282z" />
    <glyph glyph-name="v" unicode="v" horiz-adv-x="497" 
d="M205 0l-175 507h64l71 -213l81 -245q10 37 83 245l74 213h64l-180 -507h-82z" />
    <glyph glyph-name="w" unicode="w" horiz-adv-x="788" 
d="M185 0l-155 507h67l50 -168q28 -94 47.5 -163.5t25.5 -91.5l5 -23q18 65 80 279l48 167h72l50 -167l82 -281q16 59 85 281l52 167h64l-160 -507h-82l-49 166l-78 270q-17 -63 -75 -270l-47 -166h-82z" />
    <glyph glyph-name="x" unicode="x" horiz-adv-x="465" 
d="M268 260l170 -260h-73l-133 213l-136 -213h-69l167 261l-157 247h72l124 -200l123 200h71z" />
    <glyph glyph-name="y" unicode="y" horiz-adv-x="482" 
d="M216 14l-207 493h70l69 -170l98 -244q7 23 87 244l62 170h68l-184 -494q-38 -103 -90 -142t-118 -39q-20 0 -38 5v60q18 -5 34 -5q107 0 149 122z" />
    <glyph glyph-name="z" unicode="z" horiz-adv-x="446" 
d="M387 507v-46l-270 -401h284v-60h-356v51l266 397h-256v59h332z" />
    <glyph glyph-name="braceleft" unicode="{" horiz-adv-x="322" 
d="M112 264q62 -10 92.5 -48.5t30.5 -92.5q0 -31 -11.5 -85t-11.5 -84q0 -34 16.5 -56.5t49.5 -22.5q18 0 34 9v-62q-20 -7 -42 -7q-51 0 -86.5 38t-35.5 103q0 28 11.5 77.5t11.5 73.5q0 103 -89 125q-8 2 -32 2v61q21 0 32 2q44 8 66.5 41.5t22.5 81.5q0 24 -11.5 73.5
t-11.5 77.5q0 65 35.5 103t86.5 38q22 0 42 -7v-62q-17 9 -34 9q-33 0 -49.5 -22.5t-16.5 -56.5q0 -30 11.5 -84t11.5 -85q0 -54 -30.5 -92t-92.5 -48z" />
    <glyph glyph-name="bar" unicode="|" horiz-adv-x="214" 
d="M80 -194v889h54v-889h-54z" />
    <glyph glyph-name="braceright" unicode="}" horiz-adv-x="322" 
d="M210 264q-62 10 -92.5 48t-30.5 92q0 31 11.5 85t11.5 84q0 34 -16.5 56.5t-49.5 22.5q-18 0 -34 -9v62q20 7 42 7q51 0 86.5 -38t35.5 -103q0 -28 -11.5 -77.5t-11.5 -73.5q0 -48 22.5 -81.5t66.5 -41.5q11 -2 32 -2v-61q-24 0 -32 -2q-89 -22 -89 -125
q0 -24 11.5 -73.5t11.5 -77.5q0 -65 -35.5 -103t-86.5 -38q-22 0 -42 7v62q16 -9 34 -9q33 0 49.5 22.5t16.5 56.5q0 30 -11.5 84t-11.5 85q0 54 30.5 92.5t92.5 48.5z" />
    <glyph glyph-name="asciitilde" unicode="~" horiz-adv-x="585" 
d="M499 312l47 -32q-53 -85 -135 -85q-45 0 -116.5 40.5t-97.5 40.5q-70 0 -119 -72l-40 37q65 91 152 91q50 0 118.5 -40t102.5 -40q56 0 88 60z" />
    <glyph glyph-name="uni00A0" unicode="&#xa0;" horiz-adv-x="242" 
 />
    <glyph glyph-name="exclamdown" unicode="&#xa1;" horiz-adv-x="241" 
d="M69 467q0 22 14 36t36 14t37 -14t15 -36q0 -21 -15 -36t-37 -15q-21 0 -35.5 15t-14.5 36zM90 -165v478h61v-478h-61z" />
    <glyph glyph-name="cent" unicode="&#xa2;" horiz-adv-x="445" 
d="M405 492v-62q-43 23 -88 23q-93 0 -148 -59t-55 -143q0 -85 53 -142.5t151 -57.5q48 0 87 22v-62q-41 -17 -78 -18v-104h-55v105q-105 13 -163.5 86t-58.5 172q0 96 59.5 170.5t162.5 87.5v104h55v-103q37 -2 78 -19z" />
    <glyph glyph-name="sterling" unicode="&#xa3;" horiz-adv-x="517" 
d="M147 55h330v-55h-412v52q62 28 84 70t22 127q0 23 -3 50h-96v51h91q-9 86 -9 107q0 98 52 150t144 52q53 0 101 -24v-62q-49 27 -100 27q-137 0 -137 -137q0 -25 9 -113h184v-51h-178q2 -34 2 -49q0 -87 -22.5 -129t-61.5 -66z" />
    <glyph glyph-name="currency" unicode="&#xa4;" horiz-adv-x="536" 
d="M54 309q0 75 43 132l-61 62l41 41l61 -62q58 44 134 44q73 0 129 -40l58 58l41 -41l-58 -58q40 -56 40 -129q0 -75 -45 -133l63 -62l-41 -41l-63 62q-56 -42 -132 -42q-75 0 -128 39l-59 -59l-41 41l58 58q-40 54 -40 130zM108 313q0 -70 45 -115.5t115 -45.5t115 45
t45 115t-45 116t-115 46t-115 -45.5t-45 -115.5z" />
    <glyph glyph-name="yen" unicode="&#xa5;" horiz-adv-x="572" 
d="M528 654l-155 -292h120v-50h-147l-32 -60v-35h179v-50h-179v-167h-62v167h-179v50h179v35l-32 60h-147v50h121l-154 292h68l175 -343l177 343h68z" />
    <glyph glyph-name="brokenbar" unicode="&#xa6;" horiz-adv-x="214" 
d="M134 366h-54v329h54v-329zM134 -194h-54v329h54v-329z" />
    <glyph glyph-name="section" unicode="&#xa7;" horiz-adv-x="489" 
d="M112 302q0 -22 9 -41t20 -31t35 -26t38 -20.5t46 -20.5q60 -26 88 -42q30 32 30 83q0 44 -31 72t-88 53q-14 6 -55.5 22.5t-62.5 26.5q-29 -29 -29 -76zM400 650v-69q-24 16 -63 27t-76 11q-69 0 -108 -27t-39 -78q0 -18 6 -33t14.5 -24t24.5 -18.5t28.5 -14.5t35.5 -14
t37 -15q35 -15 53 -23.5t46 -26.5t42.5 -35.5t26 -45t11.5 -60.5q0 -73 -43 -119q43 -45 43 -111q0 -88 -59 -134.5t-151 -46.5q-104 0 -177 44v69q30 -23 77.5 -38t96.5 -15q71 0 110.5 31t39.5 89q0 44 -30 71.5t-87 52.5q-8 4 -35 15.5t-38 16.5t-34 17t-33.5 21
t-26.5 24t-23 30t-13 35.5t-6 43.5q0 67 40 113q-40 38 -40 97q0 84 60 127t150 43q84 0 140 -30z" />
    <glyph glyph-name="dieresis" unicode="&#xa8;" horiz-adv-x="400" 
d="M65 726q0 19 12 31t31 12q18 0 30.5 -12t12.5 -31q0 -18 -12.5 -30.5t-30.5 -12.5q-19 0 -31 12.5t-12 30.5zM249 726q0 19 12.5 31t30.5 12q19 0 31 -12t12 -31q0 -18 -12 -30.5t-31 -12.5q-18 0 -30.5 12.5t-12.5 30.5z" />
    <glyph glyph-name="copyright" unicode="&#xa9;" horiz-adv-x="780" 
d="M45 336q0 141 102 243.5t243 102.5t243 -102.5t102 -243.5t-102 -243t-243 -102t-243 102t-102 243zM104 336q0 -118 84.5 -202.5t202.5 -84.5t202.5 84.5t84.5 202.5t-84.5 203t-202.5 85t-202.5 -85t-84.5 -203zM282 333q0 -59 38 -99t100 -40q48 0 77 25v-57
q-30 -22 -81 -22q-90 0 -141 57t-51 137q0 78 51.5 136.5t140.5 58.5q46 0 81 -20v-57q-34 23 -77 23q-62 0 -100 -40t-38 -102z" />
    <glyph glyph-name="ordfeminine" unicode="&#xaa;" horiz-adv-x="337" 
d="M256 593h-69q-134 0 -134 -80q0 -34 24 -55t68 -21q47 0 79 27t32 63v66zM31 741v53q50 31 120 31q156 0 156 -164v-269h-51v54q-48 -58 -122 -58q-60 0 -97 33.5t-37 90.5q0 62 47.5 96.5t127.5 34.5h81v18q0 57 -24 86.5t-82 29.5q-67 0 -119 -36z" />
    <glyph glyph-name="guillemotleft" unicode="&#xab;" horiz-adv-x="450" 
d="M247 415l-147 -162l147 -162h-70l-150 162l150 162h70zM424 415l-147 -162l147 -162h-70l-150 162l150 162h70z" />
    <glyph glyph-name="logicalnot" unicode="&#xac;" horiz-adv-x="535" 
d="M500 166h-61v187h-419v59h480v-246z" />
    <glyph glyph-name="uni00AD" unicode="&#xad;" horiz-adv-x="345" 
d="M60 243v55h225v-55h-225z" />
    <glyph glyph-name="registered" unicode="&#xae;" horiz-adv-x="438" 
d="M196 656v-65h26q30 0 30 33q0 32 -33 32h-23zM155 690h59q79 0 79 -66q0 -43 -35 -58l52 -84h-48l-45 76h-21v-76h-41v208zM220 414q74 0 119.5 45.5t45.5 119.5t-45.5 120t-119.5 46q-75 0 -120 -46t-45 -120t45 -119.5t120 -45.5zM219 788q91 0 150 -59t59 -150
t-59 -149.5t-150 -58.5t-150 58.5t-59 149.5t59 150t150 59z" />
    <glyph glyph-name="macron" unicode="&#xaf;" horiz-adv-x="400" 
d="M331 704h-263v45h263v-45z" />
    <glyph glyph-name="degree" unicode="&#xb0;" horiz-adv-x="332" 
d="M30 539q0 59 39 97t99 38t97 -36t37 -95t-39 -97t-99 -38t-97 36t-37 95zM83 541q0 -36 24.5 -61t60.5 -25t58.5 24.5t22.5 61.5q0 36 -24.5 61t-60.5 25t-58.5 -24.5t-22.5 -61.5z" />
    <glyph glyph-name="plusminus" unicode="&#xb1;" horiz-adv-x="544" 
d="M60 31v56h424v-56h-424zM296 388h188v-56h-188v-177h-57v177h-179v56h179v177h57v-177z" />
    <glyph glyph-name="twosuperior" unicode="&#xb2;" horiz-adv-x="365" 
d="M50 392v41q205 156 205 261q0 42 -22.5 62.5t-58.5 20.5q-54 0 -109 -44v59q54 33 107 33q56 0 97 -33.5t41 -95.5q0 -58 -50.5 -126.5t-131.5 -131.5h197v-46h-275z" />
    <glyph glyph-name="threesuperior" unicode="&#xb3;" horiz-adv-x="318" 
d="M101 632h27q36 0 61.5 20.5t25.5 55.5q0 69 -78 69q-43 0 -91 -31v53q41 26 90 26q65 0 99 -32.5t34 -81.5q0 -80 -78 -100q37 -3 64.5 -32.5t27.5 -71.5q0 -53 -36 -86t-102 -33q-60 0 -110 24v51q50 -27 110 -27q39 0 61.5 19t22.5 53q0 37 -27 57.5t-74 20.5h-27v46z
" />
    <glyph glyph-name="acute" unicode="&#xb4;" horiz-adv-x="400" 
d="M110 648l102 150h81l-128 -150h-55z" />
    <glyph glyph-name="uni00B5" unicode="&#xb5;" horiz-adv-x="535" 
d="M398 507h61v-507h-61v81q-36 -88 -141 -88q-76 0 -120 47v-219h-61v686h61v-335q0 -57 39 -88.5t92 -31.5q59 0 94.5 48t35.5 125v282z" />
    <glyph glyph-name="paragraph" unicode="&#xb6;" horiz-adv-x="533" 
d="M276 674v-822h-60v495q-88 0 -137 45.5t-49 114.5q0 67 49.5 117t135.5 50h61zM397 -148v822h60v-822h-60z" />
    <glyph glyph-name="periodcentered" unicode="&#xb7;" horiz-adv-x="222" 
d="M60 337q0 22 14.5 36.5t36.5 14.5t36.5 -14.5t14.5 -36.5t-14.5 -36.5t-36.5 -14.5t-36.5 14.5t-14.5 36.5z" />
    <glyph glyph-name="cedilla" unicode="&#xb8;" horiz-adv-x="400" 
d="M271 -121q0 -52 -37 -88t-106 -39v49q87 9 87 73q0 37 -23 75h61q18 -26 18 -70z" />
    <glyph glyph-name="onesuperior" unicode="&#xb9;" horiz-adv-x="242" 
d="M10 700v57l113 64h43v-429h-52v366z" />
    <glyph glyph-name="ordmasculine" unicode="&#xba;" horiz-adv-x="358" 
d="M177 386q-87 0 -137 62.5t-50 157.5q0 93 51.5 157t135.5 64q92 0 141.5 -62.5t49.5 -158.5t-50.5 -158t-140.5 -62zM177 779q-63 0 -98.5 -51t-35.5 -122q0 -72 37 -122t97 -50q66 0 101.5 49t35.5 123q0 75 -33 124t-104 49z" />
    <glyph glyph-name="guillemotright" unicode="&#xbb;" horiz-adv-x="453" 
d="M96 415l150 -162l-150 -162h-70l147 162l-147 162h70zM273 415l150 -162l-150 -162h-70l147 162l-147 162h70z" />
    <glyph glyph-name="onequarter" unicode="&#xbc;" horiz-adv-x="833" 
d="M184 282v366l-104 -58v57l113 64h43v-429h-52zM606 712h62l-457 -712h-61zM518 144h145v242zM778 144v-42h-65v-102h-50v102h-198v42l173 285h75v-285h65z" />
    <glyph glyph-name="onehalf" unicode="&#xbd;" horiz-adv-x="833" 
d="M512 0v41q205 156 205 261q0 42 -22.5 62.5t-58.5 20.5q-54 0 -109 -44v59q54 33 107 33q56 0 97 -33.5t41 -95.5q0 -58 -50.5 -126.5t-131.5 -131.5h197v-46h-275zM80 590v57l113 64h43v-429h-52v366zM150 0l456 712h62l-457 -712h-61z" />
    <glyph glyph-name="threequarters" unicode="&#xbe;" horiz-adv-x="858" 
d="M96 636v53q41 26 90 26q65 0 99 -32.5t34 -81.5q0 -80 -78 -100q37 -3 64.5 -32.5t27.5 -71.5q0 -53 -36 -86t-102 -33q-60 0 -110 24v51q50 -27 110 -27q39 0 61.5 19t22.5 53q0 37 -27 57.5t-74 20.5h-27v46h27q36 0 61.5 20.5t25.5 55.5q0 69 -78 69q-43 0 -91 -31z
M663 712h62l-457 -712h-61zM575 144h145v242zM835 144v-42h-65v-102h-50v102h-198v42l173 285h75v-285h65z" />
    <glyph glyph-name="questiondown" unicode="&#xbf;" horiz-adv-x="450" 
d="M410 -64v-65q-27 -18 -71.5 -31t-89.5 -13q-96 0 -152.5 48t-56.5 135q0 85 59.5 132t145.5 55v116h61v-170q-94 0 -148 -33.5t-54 -100.5q0 -55 36 -89.5t108 -34.5q82 0 162 51zM327 467q0 -21 -14.5 -36t-35.5 -15q-22 0 -37 15t-15 36q0 22 15 36t37 14t36 -14
t14 -36z" />
    <glyph glyph-name="Agrave" unicode="&#xc0;" horiz-adv-x="637" 
d="M341 729h-55l-128 150h81zM189 242h261l-15 43l-114 337q-13 -40 -117 -338zM532 0l-64 187h-298l-65 -187h-67l238 674h90l233 -674h-67z" />
    <glyph glyph-name="Aacute" unicode="&#xc1;" horiz-adv-x="637" 
d="M483 879l-128 -150h-55l102 150h81zM189 242h261l-15 43l-114 337q-13 -40 -117 -338zM532 0l-64 187h-298l-65 -187h-67l238 674h90l233 -674h-67z" />
    <glyph glyph-name="Acircumflex" unicode="&#xc2;" horiz-adv-x="637" 
d="M321 836l-86 -107h-64l119 150h63l119 -150h-64zM189 242h261l-15 43l-114 337q-13 -40 -117 -338zM532 0l-64 187h-298l-65 -187h-67l238 674h90l233 -674h-67z" />
    <glyph glyph-name="Atilde" unicode="&#xc3;" horiz-adv-x="637" 
d="M440 854l42 -28q-30 -64 -89 -64q-25 0 -69.5 23t-60.5 23q-42 0 -67 -49l-36 30q13 29 39.5 48.5t57.5 19.5q28 0 71.5 -23t61.5 -23q30 0 50 43zM189 242h261l-15 43l-114 337q-13 -40 -117 -338zM532 0l-64 187h-298l-65 -187h-67l238 674h90l233 -674h-67z" />
    <glyph glyph-name="Adieresis" unicode="&#xc4;" horiz-adv-x="637" 
d="M413 762q-18 0 -30.5 12.5t-12.5 30.5q0 19 12.5 31t30.5 12q19 0 31 -12t12 -31q0 -18 -12 -30.5t-31 -12.5zM229 762q-19 0 -31 12.5t-12 30.5q0 19 12 31t31 12q18 0 30.5 -12t12.5 -31q0 -18 -12.5 -30.5t-30.5 -12.5zM189 242h261l-15 43l-114 337
q-13 -40 -117 -338zM532 0l-64 187h-298l-65 -187h-67l238 674h90l233 -674h-67z" />
    <glyph glyph-name="Aring" unicode="&#xc5;" horiz-adv-x="637" 
d="M321 871q-22 0 -37.5 -16t-15.5 -38t15.5 -37.5t37.5 -15.5t38 15.5t16 37.5q0 23 -15.5 38.5t-38.5 15.5zM321 719q-41 0 -69.5 28.5t-28.5 69.5t28.5 70t69.5 29t70 -29t29 -70t-29 -69.5t-70 -28.5zM189 242h261l-15 43l-114 337q-13 -40 -117 -338zM532 0l-64 187
h-298l-65 -187h-67l238 674h90l233 -674h-67z" />
    <glyph glyph-name="AE" unicode="&#xc6;" horiz-adv-x="863" 
d="M238 242h215v370q-64 -116 -190 -328zM515 57h303v-57h-365v187h-248l-111 -187h-67l398 674h387v-57h-297v-252h262v-57h-262v-251z" />
    <glyph glyph-name="Ccedilla" unicode="&#xc7;" horiz-adv-x="599" 
d="M336 -51h61q18 -26 18 -70q0 -52 -37 -88t-106 -39v49q87 9 87 73q0 37 -23 75zM557 647v-65q-44 23 -78 32.5t-94 9.5q-116 0 -193.5 -78.5t-77.5 -204.5q0 -132 76.5 -211t203.5 -79q99 0 165 52v-68q-61 -43 -168 -43q-153 0 -247 93t-94 256q0 152 97 247t240 95
q99 0 170 -36z" />
    <glyph glyph-name="Egrave" unicode="&#xc8;" horiz-adv-x="490" 
d="M313 728h-55l-128 150h81zM142 57h303v-57h-365v674h359v-57h-297v-252h262v-57h-262v-251z" />
    <glyph glyph-name="Eacute" unicode="&#xc9;" horiz-adv-x="490" 
d="M433 879l-128 -150h-55l102 150h81zM142 57h303v-57h-365v674h359v-57h-297v-252h262v-57h-262v-251z" />
    <glyph glyph-name="Ecircumflex" unicode="&#xca;" horiz-adv-x="490" 
d="M273 836l-86 -107h-64l119 150h63l119 -150h-64zM142 57h303v-57h-365v674h359v-57h-297v-252h262v-57h-262v-251z" />
    <glyph glyph-name="Edieresis" unicode="&#xcb;" horiz-adv-x="490" 
d="M359 760q-18 0 -30.5 12.5t-12.5 30.5q0 19 12.5 31t30.5 12q19 0 31 -12t12 -31q0 -18 -12 -30.5t-31 -12.5zM175 760q-19 0 -31 12.5t-12 30.5q0 19 12 31t31 12q18 0 30.5 -12t12.5 -31q0 -18 -12.5 -30.5t-30.5 -12.5zM142 57h303v-57h-365v674h359v-57h-297v-252
h262v-57h-262v-251z" />
    <glyph glyph-name="Igrave" unicode="&#xcc;" horiz-adv-x="232" 
d="M85 0v674h62v-674h-62zM37 879l102 -150h-55l-128 150h81z" />
    <glyph glyph-name="Iacute" unicode="&#xcd;" horiz-adv-x="232" 
d="M85 0v674h62v-674h-62zM93 729l102 150h81l-128 -150h-55z" />
    <glyph glyph-name="Icircumflex" unicode="&#xce;" horiz-adv-x="232" 
d="M85 879h63l119 -150h-64l-87 107l-86 -107h-64zM85 0v674h62v-674h-62z" />
    <glyph glyph-name="Idieresis" unicode="&#xcf;" horiz-adv-x="232" 
d="M85 0v674h62v-674h-62zM-18 804q0 19 12 31t31 12q18 0 30.5 -12t12.5 -31q0 -18 -12.5 -30.5t-30.5 -12.5q-19 0 -31 12.5t-12 30.5zM166 804q0 19 12.5 31t30.5 12q19 0 31 -12t12 -31q0 -18 -12 -30.5t-31 -12.5q-18 0 -30.5 12.5t-12.5 30.5z" />
    <glyph glyph-name="Eth" unicode="&#xd0;" horiz-adv-x="725" 
d="M212 57h135q69 0 122 24t84 65t46.5 90t15.5 105q0 115 -76.5 195.5t-196.5 80.5h-130v-251h184v-53h-184v-256zM150 674h192q148 0 243 -92t95 -241q0 -91 -35 -166.5t-112.5 -125t-185.5 -49.5h-197v313h-90v53h90v308z" />
    <glyph glyph-name="Ntilde" unicode="&#xd1;" horiz-adv-x="667" 
d="M80 0v674h85l172 -285l190 -316q-2 104 -2 315v286h62v-674h-85l-171 283l-191 318q2 -108 2 -316v-285h-62zM462 853l42 -28q-30 -64 -89 -64q-25 0 -69.5 23t-60.5 23q-42 0 -67 -49l-36 30q13 29 39.5 48.5t57.5 19.5q28 0 71.5 -23t61.5 -23q30 0 50 43z" />
    <glyph glyph-name="Ograve" unicode="&#xd2;" horiz-adv-x="691" 
d="M50 340q0 159 79.5 253.5t215.5 94.5q140 0 218 -93.5t78 -254.5q0 -160 -79 -254t-215 -94q-134 0 -215.5 95t-81.5 253zM114 340q0 -133 63.5 -210.5t169.5 -77.5q110 0 170 76.5t60 211.5q0 136 -60.5 212t-171.5 76q-108 0 -169.5 -76.5t-61.5 -211.5zM280 879
l102 -150h-55l-128 150h81z" />
    <glyph glyph-name="Oacute" unicode="&#xd3;" horiz-adv-x="691" 
d="M327 729l102 150h81l-128 -150h-55zM50 340q0 159 79.5 253.5t215.5 94.5q140 0 218 -93.5t78 -254.5q0 -160 -79 -254t-215 -94q-134 0 -215.5 95t-81.5 253zM114 340q0 -133 63.5 -210.5t169.5 -77.5q110 0 170 76.5t60 211.5q0 136 -60.5 212t-171.5 76
q-108 0 -169.5 -76.5t-61.5 -211.5z" />
    <glyph glyph-name="Ocircumflex" unicode="&#xd4;" horiz-adv-x="691" 
d="M114 340q0 -133 63.5 -210.5t169.5 -77.5q110 0 170 76.5t60 211.5q0 136 -60.5 212t-171.5 76q-108 0 -169.5 -76.5t-61.5 -211.5zM50 340q0 159 79.5 253.5t215.5 94.5q140 0 218 -93.5t78 -254.5q0 -160 -79 -254t-215 -94q-134 0 -215.5 95t-81.5 253zM322 879h63
l119 -150h-64l-87 107l-86 -107h-64z" />
    <glyph glyph-name="Otilde" unicode="&#xd5;" horiz-adv-x="691" 
d="M50 340q0 159 79.5 253.5t215.5 94.5q140 0 218 -93.5t78 -254.5q0 -160 -79 -254t-215 -94q-134 0 -215.5 95t-81.5 253zM114 340q0 -133 63.5 -210.5t169.5 -77.5q110 0 170 76.5t60 211.5q0 136 -60.5 212t-171.5 76q-108 0 -169.5 -76.5t-61.5 -211.5zM467 855
l42 -28q-30 -64 -89 -64q-25 0 -69.5 23t-60.5 23q-42 0 -67 -49l-36 30q13 29 39.5 48.5t57.5 19.5q28 0 71.5 -23t61.5 -23q30 0 50 43z" />
    <glyph glyph-name="Odieresis" unicode="&#xd6;" horiz-adv-x="691" 
d="M213 805q0 19 12 31t31 12q18 0 30.5 -12t12.5 -31q0 -18 -12.5 -30.5t-30.5 -12.5q-19 0 -31 12.5t-12 30.5zM397 805q0 19 12.5 31t30.5 12q19 0 31 -12t12 -31q0 -18 -12 -30.5t-31 -12.5q-18 0 -30.5 12.5t-12.5 30.5zM50 340q0 159 79.5 253.5t215.5 94.5
q140 0 218 -93.5t78 -254.5q0 -160 -79 -254t-215 -94q-134 0 -215.5 95t-81.5 253zM114 340q0 -133 63.5 -210.5t169.5 -77.5q110 0 170 76.5t60 211.5q0 136 -60.5 212t-171.5 76q-108 0 -169.5 -76.5t-61.5 -211.5z" />
    <glyph glyph-name="multiply" unicode="&#xd7;" horiz-adv-x="481" 
d="M417 477l-137 -136l132 -131l-40 -40l-132 131l-132 -131l-40 40l132 131l-137 135l40 40l137 -135l137 136z" />
    <glyph glyph-name="Oslash" unicode="&#xd8;" horiz-adv-x="664" 
d="M520 536l-324 -433q59 -51 143 -51q110 0 170 76.5t60 211.5q0 121 -49 196zM157 146l324 434q-57 48 -144 48q-108 0 -169.5 -76.5t-61.5 -211.5q0 -118 51 -194zM634 688l-74 -99q73 -95 73 -249q0 -160 -79 -254t-215 -94q-104 0 -181 61l-46 -62h-71l77 103
q-76 93 -76 246q0 159 79.5 253.5t215.5 94.5q107 0 181 -58l44 58h72z" />
    <glyph glyph-name="Ugrave" unicode="&#xd9;" horiz-adv-x="639" 
d="M497 253v421h62v-419q0 -130 -63 -196.5t-178 -66.5q-113 0 -175.5 65t-62.5 190v427h62v-426q0 -101 47.5 -148.5t128.5 -47.5q179 0 179 201zM247 879l102 -150h-55l-128 150h81z" />
    <glyph glyph-name="Uacute" unicode="&#xda;" horiz-adv-x="639" 
d="M304 729l102 150h81l-128 -150h-55zM497 253v421h62v-419q0 -130 -63 -196.5t-178 -66.5q-113 0 -175.5 65t-62.5 190v427h62v-426q0 -101 47.5 -148.5t128.5 -47.5q179 0 179 201z" />
    <glyph glyph-name="Ucircumflex" unicode="&#xdb;" horiz-adv-x="639" 
d="M497 253v421h62v-419q0 -130 -63 -196.5t-178 -66.5q-113 0 -175.5 65t-62.5 190v427h62v-426q0 -101 47.5 -148.5t128.5 -47.5q179 0 179 201zM291 879h63l119 -150h-64l-87 107l-86 -107h-64z" />
    <glyph glyph-name="Udieresis" unicode="&#xdc;" horiz-adv-x="639" 
d="M185 805q0 19 12 31t31 12q18 0 30.5 -12t12.5 -31q0 -18 -12.5 -30.5t-30.5 -12.5q-19 0 -31 12.5t-12 30.5zM369 805q0 19 12.5 31t30.5 12q19 0 31 -12t12 -31q0 -18 -12 -30.5t-31 -12.5q-18 0 -30.5 12.5t-12.5 30.5zM497 253v421h62v-419q0 -130 -63 -196.5
t-178 -66.5q-113 0 -175.5 65t-62.5 190v427h62v-426q0 -101 47.5 -148.5t128.5 -47.5q179 0 179 201z" />
    <glyph glyph-name="Yacute" unicode="&#xdd;" horiz-adv-x="580" 
d="M463 878l-128 -150h-55l102 150h81zM479 674h71l-230 -422v-252h-62v252l-228 422h71l53 -99l135 -260q8 19 137 260z" />
    <glyph glyph-name="Thorn" unicode="&#xde;" horiz-adv-x="529" 
d="M142 183h108q85 0 128.5 41t43.5 106q0 76 -45.5 118.5t-137.5 42.5h-97v-308zM142 546h90q124 0 188.5 -59t64.5 -157q0 -86 -62.5 -144t-179.5 -58h-101v-128h-62v674h62v-128z" />
    <glyph glyph-name="germandbls" unicode="&#xdf;" horiz-adv-x="526" 
d="M252 3v64q37 -17 81 -17q45 0 72 21t27 55q0 27 -15.5 50t-37.5 41t-44.5 36.5t-38 43.5t-15.5 55q0 28 13.5 53.5t30 41.5t30 41t13.5 53q0 41 -30 65.5t-78 24.5q-118 0 -118 -126v-505h-62v505q0 93 50.5 139t134.5 46q74 0 119.5 -43t45.5 -106q0 -46 -21 -80.5
t-41.5 -59t-20.5 -45.5q0 -24 23 -49t50.5 -44t50.5 -54t23 -78q0 -60 -43 -99t-121 -39q-46 0 -78 10z" />
    <glyph glyph-name="agrave" unicode="&#xe0;" horiz-adv-x="486" 
d="M282 562h-55l-128 150h81zM355 241h-99q-71 0 -106 -27.5t-35 -68.5q0 -42 27.5 -68t80.5 -26q60 0 96 33t36 84v73zM87 414v66q58 35 143 35q186 0 186 -195v-320h-61v59q-42 -64 -146 -64q-70 0 -114.5 41.5t-44.5 106.5q0 73 56.5 113.5t149.5 40.5h99v23
q0 68 -29 102.5t-97 34.5q-79 0 -142 -43z" />
    <glyph glyph-name="aacute" unicode="&#xe1;" horiz-adv-x="486" 
d="M414 712l-128 -150h-55l102 150h81zM355 241h-99q-71 0 -106 -27.5t-35 -68.5q0 -42 27.5 -68t80.5 -26q60 0 96 33t36 84v73zM87 414v66q58 35 143 35q186 0 186 -195v-320h-61v59q-42 -64 -146 -64q-70 0 -114.5 41.5t-44.5 106.5q0 73 56.5 113.5t149.5 40.5h99v23
q0 68 -29 102.5t-97 34.5q-79 0 -142 -43z" />
    <glyph glyph-name="acircumflex" unicode="&#xe2;" horiz-adv-x="486" 
d="M253 668l-86 -107h-64l119 150h63l119 -150h-64zM355 241h-99q-71 0 -106 -27.5t-35 -68.5q0 -42 27.5 -68t80.5 -26q60 0 96 33t36 84v73zM87 414v66q58 35 143 35q186 0 186 -195v-320h-61v59q-42 -64 -146 -64q-70 0 -114.5 41.5t-44.5 106.5q0 73 56.5 113.5
t149.5 40.5h99v23q0 68 -29 102.5t-97 34.5q-79 0 -142 -43z" />
    <glyph glyph-name="atilde" unicode="&#xe3;" horiz-adv-x="486" 
d="M368 687l42 -28q-30 -64 -89 -64q-25 0 -69.5 23t-60.5 23q-42 0 -67 -49l-36 30q13 29 39.5 48.5t57.5 19.5q28 0 71.5 -23t61.5 -23q30 0 50 43zM355 241h-99q-71 0 -106 -27.5t-35 -68.5q0 -42 27.5 -68t80.5 -26q60 0 96 33t36 84v73zM87 414v66q58 35 143 35
q186 0 186 -195v-320h-61v59q-42 -64 -146 -64q-70 0 -114.5 41.5t-44.5 106.5q0 73 56.5 113.5t149.5 40.5h99v23q0 68 -29 102.5t-97 34.5q-79 0 -142 -43z" />
    <glyph glyph-name="adieresis" unicode="&#xe4;" horiz-adv-x="486" 
d="M341 591q-18 0 -30.5 12.5t-12.5 30.5q0 19 12.5 31t30.5 12q19 0 31 -12t12 -31q0 -18 -12 -30.5t-31 -12.5zM157 591q-19 0 -31 12.5t-12 30.5q0 19 12 31t31 12q18 0 30.5 -12t12.5 -31q0 -18 -12.5 -30.5t-30.5 -12.5zM355 241h-99q-71 0 -106 -27.5t-35 -68.5
q0 -42 27.5 -68t80.5 -26q60 0 96 33t36 84v73zM87 414v66q58 35 143 35q186 0 186 -195v-320h-61v59q-42 -64 -146 -64q-70 0 -114.5 41.5t-44.5 106.5q0 73 56.5 113.5t149.5 40.5h99v23q0 68 -29 102.5t-97 34.5q-79 0 -142 -43z" />
    <glyph glyph-name="aring" unicode="&#xe5;" horiz-adv-x="486" 
d="M253 704q-22 0 -37.5 -16t-15.5 -38t15.5 -37.5t37.5 -15.5t38 15.5t16 37.5t-15.5 38t-38.5 16zM253 552q-41 0 -69.5 29t-28.5 69q0 41 28.5 70t69.5 29t70 -29t29 -70t-29 -69.5t-70 -28.5zM355 241h-99q-71 0 -106 -27.5t-35 -68.5q0 -42 27.5 -68t80.5 -26
q60 0 96 33t36 84v73zM87 414v66q58 35 143 35q186 0 186 -195v-320h-61v59q-42 -64 -146 -64q-70 0 -114.5 41.5t-44.5 106.5q0 73 56.5 113.5t149.5 40.5h99v23q0 68 -29 102.5t-97 34.5q-79 0 -142 -43z" />
    <glyph glyph-name="ae" unicode="&#xe6;" horiz-adv-x="822" 
d="M778 226h-356q7 -84 59 -128.5t130 -44.5q83 0 134 34v-62q-60 -30 -137 -30q-68 0 -124 29.5t-87 77.5q-20 -49 -68 -78t-115 -29q-70 0 -114.5 39.5t-44.5 107.5q0 74 57 115t152 41h96v22q0 68 -29 102.5t-97 34.5q-81 0 -142 -42v63q59 37 143 37q132 0 169 -95
q61 93 179 93q97 0 148 -62t51 -176q0 -29 -4 -49zM581 456q-63 0 -107 -44t-52 -130h297v23q0 73 -38.5 112t-99.5 39zM360 178v61h-82q-159 0 -159 -95q0 -41 28 -65.5t81 -24.5q55 0 93.5 34t38.5 90z" />
    <glyph glyph-name="ccedilla" unicode="&#xe7;" horiz-adv-x="472" 
d="M109 251q0 -86 53 -145t151 -59q61 0 104 32v-62q-43 -29 -111 -29q-123 0 -192 77.5t-69 186.5q0 106 70.5 185t190.5 79q62 0 111 -27v-62q-45 30 -105 30q-93 0 -148 -60.5t-55 -145.5zM331 -121q0 -52 -37 -88t-106 -39v49q87 9 87 73q0 37 -23 75h61q18 -26 18 -70z
" />
    <glyph glyph-name="egrave" unicode="&#xe8;" horiz-adv-x="519" 
d="M314 562h-55l-128 150h81zM408 282v23q0 69 -38.5 110t-103.5 41q-64 0 -107 -45t-50 -129h299zM439 87v-62q-60 -30 -140 -30q-113 0 -183.5 70.5t-70.5 185.5q0 122 62 192t161 70q93 0 148 -61t55 -172q0 -34 -4 -54h-358q7 -84 58 -128.5t135 -44.5q86 0 137 34z" />
    <glyph glyph-name="eacute" unicode="&#xe9;" horiz-adv-x="519" 
d="M441 712l-128 -150h-55l102 150h81zM408 282v23q0 69 -38.5 110t-103.5 41q-64 0 -107 -45t-50 -129h299zM439 87v-62q-60 -30 -140 -30q-113 0 -183.5 70.5t-70.5 185.5q0 122 62 192t161 70q93 0 148 -61t55 -172q0 -34 -4 -54h-358q7 -84 58 -128.5t135 -44.5
q86 0 137 34z" />
    <glyph glyph-name="ecircumflex" unicode="&#xea;" horiz-adv-x="519" 
d="M284 669l-86 -107h-64l119 150h63l119 -150h-64zM408 282v23q0 69 -38.5 110t-103.5 41q-64 0 -107 -45t-50 -129h299zM439 87v-62q-60 -30 -140 -30q-113 0 -183.5 70.5t-70.5 185.5q0 122 62 192t161 70q93 0 148 -61t55 -172q0 -34 -4 -54h-358q7 -84 58 -128.5
t135 -44.5q86 0 137 34z" />
    <glyph glyph-name="edieresis" unicode="&#xeb;" horiz-adv-x="519" 
d="M373 594q-18 0 -30.5 12.5t-12.5 30.5q0 19 12.5 31t30.5 12q19 0 31 -12t12 -31q0 -18 -12 -30.5t-31 -12.5zM189 594q-19 0 -31 12.5t-12 30.5q0 19 12 31t31 12q18 0 30.5 -12t12.5 -31q0 -18 -12.5 -30.5t-30.5 -12.5zM408 282v23q0 69 -38.5 110t-103.5 41
q-64 0 -107 -45t-50 -129h299zM439 87v-62q-60 -30 -140 -30q-113 0 -183.5 70.5t-70.5 185.5q0 122 62 192t161 70q93 0 148 -61t55 -172q0 -34 -4 -54h-358q7 -84 58 -128.5t135 -44.5q86 0 137 34z" />
    <glyph glyph-name="igrave" unicode="&#xec;" horiz-adv-x="221" 
d="M80 0v507h61v-507h-61zM32 711l102 -150h-55l-128 150h81z" />
    <glyph glyph-name="iacute" unicode="&#xed;" horiz-adv-x="221" 
d="M80 0v507h61v-507h-61zM89 562l102 150h81l-128 -150h-55z" />
    <glyph glyph-name="icircumflex" unicode="&#xee;" horiz-adv-x="221" 
d="M80 712h63l119 -150h-64l-87 107l-86 -107h-64zM80 0v507h61v-507h-61z" />
    <glyph glyph-name="idieresis" unicode="&#xef;" horiz-adv-x="221" 
d="M80 0v507h61v-507h-61zM-24 639q0 19 12 31t31 12q18 0 30.5 -12t12.5 -31q0 -18 -12.5 -30.5t-30.5 -12.5q-19 0 -31 12.5t-12 30.5zM160 639q0 19 12.5 31t30.5 12q19 0 31 -12t12 -31q0 -18 -12 -30.5t-31 -12.5q-18 0 -30.5 12.5t-12.5 30.5z" />
    <glyph glyph-name="eth" unicode="&#xf0;" horiz-adv-x="506" 
d="M247 49q66 0 111 53.5t46 159.5q-62 88 -164 88q-58 0 -97.5 -39t-39.5 -109q0 -71 40.5 -112t103.5 -41zM444 616l-90 -46q107 -136 107 -306q0 -136 -58 -204.5t-156 -68.5q-92 0 -150 62t-58 149q0 97 60.5 152.5t143.5 55.5q96 0 155 -73q-19 111 -97 205l-139 -72
v56l104 54q-65 62 -134 94h108q44 -27 80 -66l124 64v-56z" />
    <glyph glyph-name="ntilde" unicode="&#xf1;" horiz-adv-x="529" 
d="M396 686l42 -28q-30 -64 -89 -64q-25 0 -69.5 23t-60.5 23q-42 0 -67 -49l-36 30q13 29 39.5 48.5t57.5 19.5q28 0 71.5 -23t61.5 -23q30 0 50 43zM137 507v-87q47 95 161 95q73 0 117 -45t44 -116v-354h-61v335q0 59 -30 90t-79 31q-62 0 -107 -47.5t-45 -128.5v-280
h-61v507h61z" />
    <glyph glyph-name="ograve" unicode="&#xf2;" horiz-adv-x="561" 
d="M278 -9q-107 0 -170 74t-63 186q0 111 65 187t168 76q113 0 175.5 -74.5t62.5 -188.5q0 -113 -63.5 -186.5t-174.5 -73.5zM278 456q-79 0 -124 -60t-45 -145q0 -83 46.5 -142.5t122.5 -59.5q83 0 128.5 58.5t45.5 143.5q0 88 -43 146.5t-131 58.5zM207 712l102 -150h-55
l-128 150h81z" />
    <glyph glyph-name="oacute" unicode="&#xf3;" horiz-adv-x="561" 
d="M264 562l102 150h81l-128 -150h-55zM278 -9q-107 0 -170 74t-63 186q0 111 65 187t168 76q113 0 175.5 -74.5t62.5 -188.5q0 -113 -63.5 -186.5t-174.5 -73.5zM278 456q-79 0 -124 -60t-45 -145q0 -83 46.5 -142.5t122.5 -59.5q83 0 128.5 58.5t45.5 143.5
q0 88 -43 146.5t-131 58.5z" />
    <glyph glyph-name="ocircumflex" unicode="&#xf4;" horiz-adv-x="561" 
d="M278 456q-79 0 -124 -60t-45 -145q0 -83 46.5 -142.5t122.5 -59.5q83 0 128.5 58.5t45.5 143.5q0 88 -43 146.5t-131 58.5zM278 -9q-107 0 -170 74t-63 186q0 111 65 187t168 76q113 0 175.5 -74.5t62.5 -188.5q0 -113 -63.5 -186.5t-174.5 -73.5zM252 711h63l119 -150
h-64l-87 107l-86 -107h-64z" />
    <glyph glyph-name="otilde" unicode="&#xf5;" horiz-adv-x="561" 
d="M278 -9q-107 0 -170 74t-63 186q0 111 65 187t168 76q113 0 175.5 -74.5t62.5 -188.5q0 -113 -63.5 -186.5t-174.5 -73.5zM278 456q-79 0 -124 -60t-45 -145q0 -83 46.5 -142.5t122.5 -59.5q83 0 128.5 58.5t45.5 143.5q0 88 -43 146.5t-131 58.5zM402 686l42 -28
q-30 -64 -89 -64q-25 0 -69.5 23t-60.5 23q-42 0 -67 -49l-36 30q13 29 39.5 48.5t57.5 19.5q28 0 71.5 -23t61.5 -23q30 0 50 43z" />
    <glyph glyph-name="odieresis" unicode="&#xf6;" horiz-adv-x="561" 
d="M153 635q0 19 12 31t31 12q18 0 30.5 -12t12.5 -31q0 -18 -12.5 -30.5t-30.5 -12.5q-19 0 -31 12.5t-12 30.5zM337 635q0 19 12.5 31t30.5 12q19 0 31 -12t12 -31q0 -18 -12 -30.5t-31 -12.5q-18 0 -30.5 12.5t-12.5 30.5zM278 -9q-107 0 -170 74t-63 186q0 111 65 187
t168 76q113 0 175.5 -74.5t62.5 -188.5q0 -113 -63.5 -186.5t-174.5 -73.5zM278 456q-79 0 -124 -60t-45 -145q0 -83 46.5 -142.5t122.5 -59.5q83 0 128.5 58.5t45.5 143.5q0 88 -43 146.5t-131 58.5z" />
    <glyph glyph-name="divide" unicode="&#xf7;" horiz-adv-x="544" 
d="M226 519q0 19 13.5 32.5t32.5 13.5t32.5 -13.5t13.5 -32.5t-13.5 -32.5t-32.5 -13.5t-32.5 13.5t-13.5 32.5zM60 312v56h424v-56h-424zM226 161q0 19 13.5 32.5t32.5 13.5t32.5 -13.5t13.5 -32.5t-13.5 -32.5t-32.5 -13.5t-32.5 13.5t-13.5 32.5z" />
    <glyph glyph-name="oslash" unicode="&#xf8;" horiz-adv-x="563" 
d="M437 388l-238 -310q43 -32 96 -32q84 0 130.5 59t46.5 146q0 83 -35 137zM160 120l237 310q-42 29 -102 29q-80 0 -126 -60.5t-46 -147.5q0 -75 37 -131zM533 514l-60 -78q60 -71 60 -185q0 -113 -63.5 -186.5t-174.5 -73.5q-77 0 -132 40l-30 -40h-71l60 78
q-60 72 -60 182q0 111 65 187t168 76q80 0 136 -39l30 39h72z" />
    <glyph glyph-name="ugrave" unicode="&#xf9;" horiz-adv-x="529" 
d="M292 561h-55l-128 150h81zM392 507h61v-507h-61v91q-40 -98 -161 -98q-74 0 -117.5 44.5t-43.5 117.5v352h61v-335q0 -58 30.5 -89t80.5 -31q67 0 108.5 48t41.5 125v282z" />
    <glyph glyph-name="uacute" unicode="&#xfa;" horiz-adv-x="529" 
d="M424 712l-128 -150h-55l102 150h81zM392 507h61v-507h-61v91q-40 -98 -161 -98q-74 0 -117.5 44.5t-43.5 117.5v352h61v-335q0 -58 30.5 -89t80.5 -31q67 0 108.5 48t41.5 125v282z" />
    <glyph glyph-name="ucircumflex" unicode="&#xfb;" horiz-adv-x="529" 
d="M263 669l-86 -107h-64l119 150h63l119 -150h-64zM392 507h61v-507h-61v91q-40 -98 -161 -98q-74 0 -117.5 44.5t-43.5 117.5v352h61v-335q0 -58 30.5 -89t80.5 -31q67 0 108.5 48t41.5 125v282z" />
    <glyph glyph-name="udieresis" unicode="&#xfc;" horiz-adv-x="529" 
d="M358 592q-18 0 -30.5 12.5t-12.5 30.5q0 19 12.5 31t30.5 12q19 0 31 -12t12 -31q0 -18 -12 -30.5t-31 -12.5zM174 592q-19 0 -31 12.5t-12 30.5q0 19 12 31t31 12q18 0 30.5 -12t12.5 -31q0 -18 -12.5 -30.5t-30.5 -12.5zM392 507h61v-507h-61v91q-40 -98 -161 -98
q-74 0 -117.5 44.5t-43.5 117.5v352h61v-335q0 -58 30.5 -89t80.5 -31q67 0 108.5 48t41.5 125v282z" />
    <glyph glyph-name="yacute" unicode="&#xfd;" horiz-adv-x="482" 
d="M222 562l102 150h81l-128 -150h-55zM216 14l-207 493h70l69 -170l98 -244q7 23 87 244l62 170h68l-184 -494q-38 -103 -90 -142t-118 -39q-20 0 -38 5v60q18 -5 34 -5q107 0 149 122z" />
    <glyph glyph-name="thorn" unicode="&#xfe;" horiz-adv-x="555" 
d="M290 50q68 0 112 54.5t44 155.5q0 87 -42.5 142t-107.5 55t-112 -47.5t-47 -158.5q0 -56 15.5 -97.5t40 -63t49 -31t48.5 -9.5zM137 707v-274q53 82 157 82q102 0 159 -74.5t57 -181.5q0 -118 -61 -192.5t-157 -74.5q-99 0 -155 84v-276h-61v907h61z" />
    <glyph glyph-name="ydieresis" unicode="&#xff;" horiz-adv-x="482" 
d="M299 635q0 19 12.5 31t30.5 12q19 0 31 -12t12 -31q0 -18 -12 -30.5t-31 -12.5q-18 0 -30.5 12.5t-12.5 30.5zM115 635q0 19 12 31t31 12q18 0 30.5 -12t12.5 -31q0 -18 -12.5 -30.5t-30.5 -12.5q-19 0 -31 12.5t-12 30.5zM216 14l-207 493h70l69 -170l98 -244
q7 23 87 244l62 170h68l-184 -494q-38 -103 -90 -142t-118 -39q-20 0 -38 5v60q18 -5 34 -5q107 0 149 122z" />
    <glyph glyph-name="Amacron" unicode="&#x100;" horiz-adv-x="637" 
d="M453 826v-45h-263v45h263zM189 242h261l-15 43l-114 337q-13 -40 -117 -338zM532 0l-64 187h-298l-65 -187h-67l238 674h90l233 -674h-67z" />
    <glyph glyph-name="amacron" unicode="&#x101;" horiz-adv-x="486" 
d="M376 659v-45h-263v45h263zM355 241h-99q-71 0 -106 -27.5t-35 -68.5q0 -42 27.5 -68t80.5 -26q60 0 96 33t36 84v73zM87 414v66q58 35 143 35q186 0 186 -195v-320h-61v59q-42 -64 -146 -64q-70 0 -114.5 41.5t-44.5 106.5q0 73 56.5 113.5t149.5 40.5h99v23
q0 68 -29 102.5t-97 34.5q-79 0 -142 -43z" />
    <glyph glyph-name="Abreve" unicode="&#x102;" horiz-adv-x="637" 
d="M424 878h52q0 -68 -37 -110.5t-118 -42.5t-118 42.5t-37 110.5h52q0 -105 103 -105t103 105zM189 242h261l-15 43l-114 337q-13 -40 -117 -338zM532 0l-64 187h-298l-65 -187h-67l238 674h90l233 -674h-67z" />
    <glyph glyph-name="abreve" unicode="&#x103;" horiz-adv-x="486" 
d="M350 711h52q0 -68 -37 -110.5t-118 -42.5t-118 42.5t-37 110.5h52q0 -105 103 -105t103 105zM355 241h-99q-71 0 -106 -27.5t-35 -68.5q0 -42 27.5 -68t80.5 -26q60 0 96 33t36 84v73zM87 414v66q58 35 143 35q186 0 186 -195v-320h-61v59q-42 -64 -146 -64
q-70 0 -114.5 41.5t-44.5 106.5q0 73 56.5 113.5t149.5 40.5h99v23q0 68 -29 102.5t-97 34.5q-79 0 -142 -43z" />
    <glyph glyph-name="Aogonek" unicode="&#x104;" horiz-adv-x="637" 
d="M189 242h261l-15 43l-114 337q-13 -40 -117 -338zM366 674l233 -674q-111 -50 -111 -124q0 -32 19 -48.5t51 -16.5q37 0 64 20v-50q-28 -18 -71 -18q-55 0 -87 30.5t-32 77.5q0 42 27 79t69 61l-60 176h-298l-65 -187h-67l238 674h90z" />
    <glyph glyph-name="aogonek" unicode="&#x105;" horiz-adv-x="486" 
d="M355 239h-82q-159 0 -159 -95q0 -41 28 -65.5t81 -24.5q56 0 94 32t38 74v79zM416 320v-320q-111 -50 -111 -124q0 -32 19 -48.5t51 -16.5q37 0 64 20v-50q-28 -18 -71 -18q-55 0 -87 30.5t-32 77.5q0 45 30 83.5t76 61.5v47q-56 -68 -146 -68q-70 0 -114.5 39.5
t-44.5 107.5q0 74 57 115t152 41h96v22q0 68 -29 102.5t-97 34.5q-81 0 -142 -42v63q59 37 143 37q186 0 186 -195z" />
    <glyph glyph-name="Cacute" unicode="&#x106;" horiz-adv-x="599" 
d="M557 647v-65q-44 23 -78 32.5t-94 9.5q-116 0 -193.5 -78.5t-77.5 -204.5q0 -132 76.5 -211t203.5 -79q99 0 165 52v-68q-61 -43 -168 -43q-153 0 -247 93t-94 256q0 152 97 247t240 95q99 0 170 -36zM337 729l102 150h81l-128 -150h-55z" />
    <glyph glyph-name="cacute" unicode="&#x107;" horiz-adv-x="472" 
d="M265 561l102 150h81l-128 -150h-55zM109 251q0 -86 53 -145t151 -59q61 0 104 32v-62q-43 -29 -111 -29q-123 0 -192 77.5t-69 186.5q0 106 70.5 185t190.5 79q62 0 111 -27v-62q-45 30 -105 30q-93 0 -148 -60.5t-55 -145.5z" />
    <glyph glyph-name="Ccaron" unicode="&#x10c;" horiz-adv-x="599" 
d="M557 647v-65q-44 23 -78 32.5t-94 9.5q-116 0 -193.5 -78.5t-77.5 -204.5q0 -132 76.5 -211t203.5 -79q99 0 165 52v-68q-61 -43 -168 -43q-153 0 -247 93t-94 256q0 152 97 247t240 95q99 0 170 -36zM415 729h-63l-119 150h64l87 -107l86 107h64z" />
    <glyph glyph-name="ccaron" unicode="&#x10d;" horiz-adv-x="472" 
d="M417 489v-62q-45 30 -105 30q-93 0 -148 -60.5t-55 -145.5q0 -86 53 -145t151 -59q61 0 104 32v-62q-43 -29 -111 -29q-123 0 -192 77.5t-69 186.5q0 106 70.5 185t190.5 79q62 0 111 -27zM307 562h-63l-119 150h64l87 -107l86 107h64z" />
    <glyph glyph-name="Dcaron" unicode="&#x10e;" horiz-adv-x="655" 
d="M334 728h-63l-119 150h64l87 -107l86 107h64zM142 57h135q69 0 122 24t84 65t46.5 90t15.5 105q0 115 -76.5 195.5t-196.5 80.5h-130v-560zM80 674h192q148 0 243 -92t95 -241q0 -91 -35 -166.5t-112.5 -125t-185.5 -49.5h-197v674z" />
    <glyph glyph-name="dcaron" unicode="&#x10f;" horiz-adv-x="637" 
d="M259 50q65 0 112 47.5t47 158.5q0 56 -15.5 97.5t-40 63t-49 31t-48.5 9.5q-68 0 -112 -54.5t-44 -155.5q0 -87 42.5 -142t107.5 -55zM418 431v276h61v-707h-61v74q-53 -82 -157 -82q-102 0 -159 74.5t-57 181.5q0 118 61 192.5t157 74.5q99 0 155 -84zM627 707h76
l-110 -187h-54z" />
    <glyph glyph-name="Dcroat" unicode="&#x110;" horiz-adv-x="725" 
d="M212 57h135q69 0 122 24t84 65t46.5 90t15.5 105q0 115 -76.5 195.5t-196.5 80.5h-130v-251h184v-53h-184v-256zM150 674h192q148 0 243 -92t95 -241q0 -91 -35 -166.5t-112.5 -125t-185.5 -49.5h-197v313h-90v53h90v308z" />
    <glyph glyph-name="dcroat" unicode="&#x111;" horiz-adv-x="555" 
d="M259 50q65 0 112 47.5t47 158.5q0 56 -15.5 97.5t-40 63t-49 31t-48.5 9.5q-68 0 -112 -54.5t-44 -155.5q0 -87 42.5 -142t107.5 -55zM554 641v-48h-75v-593h-61v74q-53 -82 -157 -82q-102 0 -159 74.5t-57 181.5q0 118 61 192.5t157 74.5q99 0 155 -84v162h-205v48h205
v66h61v-66h75z" />
    <glyph glyph-name="Emacron" unicode="&#x112;" horiz-adv-x="490" 
d="M392 826v-45h-263v45h263zM142 57h303v-57h-365v674h359v-57h-297v-252h262v-57h-262v-251z" />
    <glyph glyph-name="emacron" unicode="&#x113;" horiz-adv-x="519" 
d="M409 659v-45h-263v45h263zM408 282v23q0 69 -38.5 110t-103.5 41q-64 0 -107 -45t-50 -129h299zM439 87v-62q-60 -30 -140 -30q-113 0 -183.5 70.5t-70.5 185.5q0 122 62 192t161 70q93 0 148 -61t55 -172q0 -34 -4 -54h-358q7 -84 58 -128.5t135 -44.5q86 0 137 34z" />
    <glyph glyph-name="Edotaccent" unicode="&#x116;" horiz-adv-x="490" 
d="M273 763q-18 0 -30.5 12.5t-12.5 30.5q0 19 12.5 31t30.5 12q19 0 31 -12t12 -31q0 -18 -12 -30.5t-31 -12.5zM142 57h303v-57h-365v674h359v-57h-297v-252h262v-57h-262v-251z" />
    <glyph glyph-name="edotaccent" unicode="&#x117;" horiz-adv-x="519" 
d="M282 595q-18 0 -30.5 12.5t-12.5 30.5q0 19 12.5 31t30.5 12q19 0 31 -12t12 -31q0 -18 -12 -30.5t-31 -12.5zM408 282v23q0 69 -38.5 110t-103.5 41q-64 0 -107 -45t-50 -129h299zM439 87v-62q-60 -30 -140 -30q-113 0 -183.5 70.5t-70.5 185.5q0 122 62 192t161 70
q93 0 148 -61t55 -172q0 -34 -4 -54h-358q7 -84 58 -128.5t135 -44.5q86 0 137 34z" />
    <glyph glyph-name="Eogonek" unicode="&#x118;" horiz-adv-x="490" 
d="M445 0h-113q-111 -50 -111 -124q0 -32 19 -48.5t51 -16.5q37 0 64 20v-50q-28 -18 -71 -18q-55 0 -87 30.5t-32 77.5q0 75 79 129h-164v674h359v-57h-297v-252h262v-57h-262v-251h303v-57z" />
    <glyph glyph-name="eogonek" unicode="&#x119;" horiz-adv-x="519" 
d="M408 282v23q0 69 -38.5 110t-103.5 41q-64 0 -107 -45t-50 -129h299zM368 -170v-50q-28 -18 -71 -18q-55 0 -87 30.5t-32 77.5q0 74 77 128q-95 14 -152.5 82t-57.5 171q0 122 62 192t161 70q93 0 148 -61t55 -172q0 -34 -4 -54h-358q7 -84 58 -128.5t135 -44.5
q86 0 137 34v-62q-36 -18 -96 -27q-109 -50 -109 -123q0 -32 19 -48.5t51 -16.5q37 0 64 20z" />
    <glyph glyph-name="Ecaron" unicode="&#x11a;" horiz-adv-x="490" 
d="M301 728h-63l-119 150h64l87 -107l86 107h64zM142 57h303v-57h-365v674h359v-57h-297v-252h262v-57h-262v-251z" />
    <glyph glyph-name="ecaron" unicode="&#x11b;" horiz-adv-x="519" 
d="M306 562h-63l-119 150h64l87 -107l86 107h64zM408 282v23q0 69 -38.5 110t-103.5 41q-64 0 -107 -45t-50 -129h299zM439 87v-62q-60 -30 -140 -30q-113 0 -183.5 70.5t-70.5 185.5q0 122 62 192t161 70q93 0 148 -61t55 -172q0 -34 -4 -54h-358q7 -84 58 -128.5
t135 -44.5q86 0 137 34z" />
    <glyph glyph-name="Gbreve" unicode="&#x11e;" horiz-adv-x="661" 
d="M469 879h52q0 -68 -37 -110.5t-118 -42.5t-118 42.5t-37 110.5h52q0 -105 103 -105t103 105zM591 371v-321q-79 -58 -200 -58q-154 0 -247.5 92.5t-93.5 253.5q0 152 91.5 250t231.5 98q119 0 196 -47v-69q-77 54 -188 54q-118 0 -192.5 -78.5t-74.5 -207.5
q0 -133 74 -208.5t204 -75.5q77 0 137 31v231h-159v55h221z" />
    <glyph glyph-name="gbreve" unicode="&#x11f;" horiz-adv-x="539" 
d="M389 712h52q0 -68 -37 -110.5t-118 -42.5t-118 42.5t-37 110.5h52q0 -105 103 -105t103 105zM257 70q57 0 104 44.5t47 136.5q0 105 -45 155.5t-101 50.5q-71 0 -112 -56t-41 -145q0 -91 46 -138.5t102 -47.5zM408 507h61v-468q0 -115 -62 -172.5t-160 -57.5
q-87 0 -148 29v60q62 -31 143 -31q76 0 121 41.5t45 130.5v66q-51 -93 -152 -93q-88 0 -149.5 65t-61.5 176q0 114 56.5 188t148.5 74q109 0 158 -97v89z" />
    <glyph glyph-name="uni0122" unicode="&#x122;" horiz-adv-x="661" 
d="M249 -238l88 187h76l-110 -187h-54zM591 371v-321q-79 -58 -200 -58q-154 0 -247.5 92.5t-93.5 253.5q0 152 91.5 250t231.5 98q119 0 196 -47v-69q-77 54 -188 54q-118 0 -192.5 -78.5t-74.5 -207.5q0 -133 74 -208.5t204 -75.5q77 0 137 31v231h-159v55h221z" />
    <glyph glyph-name="uni0123" unicode="&#x123;" horiz-adv-x="539" 
d="M429 748l-88 -187h-76l110 187h54zM257 70q57 0 104 44.5t47 136.5q0 105 -45 155.5t-101 50.5q-71 0 -112 -56t-41 -145q0 -91 46 -138.5t102 -47.5zM408 507h61v-468q0 -115 -62 -172.5t-160 -57.5q-87 0 -148 29v60q62 -31 143 -31q76 0 121 41.5t45 130.5v66
q-51 -93 -152 -93q-88 0 -149.5 65t-61.5 176q0 114 56.5 188t148.5 74q109 0 158 -97v89z" />
    <glyph glyph-name="Imacron" unicode="&#x12a;" horiz-adv-x="232" 
d="M85 0v674h62v-674h-62zM248 781h-263v45h263v-45z" />
    <glyph glyph-name="imacron" unicode="&#x12b;" horiz-adv-x="221" 
d="M80 0v507h61v-507h-61zM243 614h-263v45h263v-45z" />
    <glyph glyph-name="Iogonek" unicode="&#x12e;" horiz-adv-x="232" 
d="M147 674v-674q-111 -50 -111 -124q0 -32 19 -48.5t51 -16.5q37 0 64 20v-50q-28 -18 -71 -18q-55 0 -87 30.5t-32 77.5q0 44 29.5 82.5t75.5 62.5v658h62z" />
    <glyph glyph-name="iogonek" unicode="&#x12f;" horiz-adv-x="221" 
d="M110 627q-18 0 -30 12t-12 30t12 30.5t30 12.5t30.5 -12.5t12.5 -30.5t-12.5 -30t-30.5 -12zM141 507v-507q-111 -50 -111 -124q0 -32 19 -48.5t51 -16.5q37 0 64 20v-50q-28 -18 -71 -18q-55 0 -87 30.5t-32 77.5q0 45 30 83.5t76 61.5v491h61z" />
    <glyph glyph-name="Idotaccent" unicode="&#x130;" horiz-adv-x="232" 
d="M85 0v674h62v-674h-62zM74 807q0 19 12.5 31t30.5 12q19 0 31 -12t12 -31q0 -18 -12 -30.5t-31 -12.5q-18 0 -30.5 12.5t-12.5 30.5z" />
    <glyph glyph-name="dotlessi" unicode="&#x131;" horiz-adv-x="221" 
d="M80 0v507h61v-507h-61z" />
    <glyph glyph-name="uni0136" unicode="&#x136;" horiz-adv-x="549" 
d="M80 0v674h62v-674h-62zM159 -238l88 187h76l-110 -187h-54zM239 332l280 -332h-82l-277 332l267 342h78z" />
    <glyph glyph-name="uni0137" unicode="&#x137;" horiz-adv-x="462" 
d="M137 707v-707h-61v707h61zM109 -238l88 187h76l-110 -187h-54zM226 266l214 -266h-76l-212 266l206 241h75z" />
    <glyph glyph-name="Lacute" unicode="&#x139;" horiz-adv-x="474" 
d="M438 879l-128 -150h-55l102 150h81zM142 57h297v-57h-359v674h62v-617z" />
    <glyph glyph-name="lacute" unicode="&#x13a;" horiz-adv-x="221" 
d="M86 762l102 150h81l-128 -150h-55zM80 0v707h61v-707h-61z" />
    <glyph glyph-name="uni013B" unicode="&#x13b;" horiz-adv-x="474" 
d="M139 -238l88 187h76l-110 -187h-54zM142 57h297v-57h-359v674h62v-617z" />
    <glyph glyph-name="uni013C" unicode="&#x13c;" horiz-adv-x="221" 
d="M80 0v707h61v-707h-61zM-14 -238l88 187h76l-110 -187h-54z" />
    <glyph glyph-name="Lcaron" unicode="&#x13d;" horiz-adv-x="474" 
d="M404 702l-110 -187h-54l88 187h76zM142 57h297v-57h-359v674h62v-617z" />
    <glyph glyph-name="lcaron" unicode="&#x13e;" horiz-adv-x="254" 
d="M80 0v707h61v-707h-61zM211 520l88 187h76l-110 -187h-54z" />
    <glyph glyph-name="Lslash" unicode="&#x141;" horiz-adv-x="483" 
d="M151 57h297v-57h-359v256l-64 -48v66l64 48v352h62v-306l146 108v-66l-146 -108v-245z" />
    <glyph glyph-name="lslash" unicode="&#x142;" horiz-adv-x="278" 
d="M243 483v-66l-81 -58v-359h-61v315l-66 -47v66l66 47v326h61v-282z" />
    <glyph glyph-name="Nacute" unicode="&#x143;" horiz-adv-x="667" 
d="M332 728l102 150h81l-128 -150h-55zM80 0v674h85l172 -285l190 -316q-2 104 -2 315v286h62v-674h-85l-171 283l-191 318q2 -108 2 -316v-285h-62z" />
    <glyph glyph-name="nacute" unicode="&#x144;" horiz-adv-x="529" 
d="M451 712l-128 -150h-55l102 150h81zM137 507v-87q47 95 161 95q73 0 117 -45t44 -116v-354h-61v335q0 59 -30 90t-79 31q-62 0 -107 -47.5t-45 -128.5v-280h-61v507h61z" />
    <glyph glyph-name="uni0145" unicode="&#x145;" horiz-adv-x="667" 
d="M220 -238l88 187h76l-110 -187h-54zM80 0v674h85l172 -285l190 -316q-2 104 -2 315v286h62v-674h-85l-171 283l-191 318q2 -108 2 -316v-285h-62z" />
    <glyph glyph-name="uni0146" unicode="&#x146;" horiz-adv-x="529" 
d="M149 -238l88 187h76l-110 -187h-54zM137 507v-87q47 95 161 95q73 0 117 -45t44 -116v-354h-61v335q0 59 -30 90t-79 31q-62 0 -107 -47.5t-45 -128.5v-280h-61v507h61z" />
    <glyph glyph-name="Ncaron" unicode="&#x147;" horiz-adv-x="667" 
d="M80 0v674h85l172 -285l190 -316q-2 104 -2 315v286h62v-674h-85l-171 283l-191 318q2 -108 2 -316v-285h-62zM384 729h-63l-119 150h64l87 -107l86 107h64z" />
    <glyph glyph-name="ncaron" unicode="&#x148;" horiz-adv-x="529" 
d="M316 562h-63l-119 150h64l87 -107l86 107h64zM137 507v-87q47 95 161 95q73 0 117 -45t44 -116v-354h-61v335q0 59 -30 90t-79 31q-62 0 -107 -47.5t-45 -128.5v-280h-61v507h61z" />
    <glyph glyph-name="Omacron" unicode="&#x14c;" horiz-adv-x="691" 
d="M479 781h-263v45h263v-45zM50 340q0 159 79.5 253.5t215.5 94.5q140 0 218 -93.5t78 -254.5q0 -160 -79 -254t-215 -94q-134 0 -215.5 95t-81.5 253zM114 340q0 -133 63.5 -210.5t169.5 -77.5q110 0 170 76.5t60 211.5q0 136 -60.5 212t-171.5 76q-108 0 -169.5 -76.5
t-61.5 -211.5z" />
    <glyph glyph-name="omacron" unicode="&#x14d;" horiz-adv-x="561" 
d="M415 614h-263v45h263v-45zM278 -9q-107 0 -170 74t-63 186q0 111 65 187t168 76q113 0 175.5 -74.5t62.5 -188.5q0 -113 -63.5 -186.5t-174.5 -73.5zM278 456q-79 0 -124 -60t-45 -145q0 -83 46.5 -142.5t122.5 -59.5q83 0 128.5 58.5t45.5 143.5q0 88 -43 146.5
t-131 58.5z" />
    <glyph glyph-name="Ohungarumlaut" unicode="&#x150;" horiz-adv-x="691" 
d="M412 729l103 150h81l-135 -150h-49zM264 729l99 150h81l-131 -150h-49zM50 340q0 159 79.5 253.5t215.5 94.5q140 0 218 -93.5t78 -254.5q0 -160 -79 -254t-215 -94q-134 0 -215.5 95t-81.5 253zM114 340q0 -133 63.5 -210.5t169.5 -77.5q110 0 170 76.5t60 211.5
q0 136 -60.5 212t-171.5 76q-108 0 -169.5 -76.5t-61.5 -211.5z" />
    <glyph glyph-name="ohungarumlaut" unicode="&#x151;" horiz-adv-x="561" 
d="M352 562l103 150h81l-135 -150h-49zM204 562l99 150h81l-131 -150h-49zM278 -9q-107 0 -170 74t-63 186q0 111 65 187t168 76q113 0 175.5 -74.5t62.5 -188.5q0 -113 -63.5 -186.5t-174.5 -73.5zM278 456q-79 0 -124 -60t-45 -145q0 -83 46.5 -142.5t122.5 -59.5
q83 0 128.5 58.5t45.5 143.5q0 88 -43 146.5t-131 58.5z" />
    <glyph glyph-name="OE" unicode="&#x152;" horiz-adv-x="979" 
d="M342 52q110 0 168.5 76t58.5 212t-59 212t-170 76q-108 0 -167 -76.5t-59 -211.5q0 -134 61.5 -211t166.5 -77zM631 57h303v-57h-365v106q-77 -114 -227 -114q-133 0 -212.5 94.5t-79.5 253.5q0 160 77.5 254t212.5 94q152 0 229 -112v98h359v-57h-297v-252h262v-57h-262
v-251z" />
    <glyph glyph-name="oe" unicode="&#x153;" horiz-adv-x="896" 
d="M789 282v23q0 73 -38.5 112t-99.5 39q-63 0 -107 -44t-52 -130h297zM268 49q82 0 120.5 57t38.5 145q0 205 -159 205q-78 0 -118.5 -59t-40.5 -146q0 -85 42 -143.5t117 -58.5zM815 87v-62q-60 -30 -137 -30q-70 0 -126.5 30t-89.5 85q-56 -119 -194 -119
q-106 0 -164.5 73.5t-58.5 186.5q0 112 60.5 187.5t162.5 75.5q136 0 192 -114q60 113 193 113q97 0 148 -62t51 -176q0 -29 -4 -49h-356q7 -84 59 -128.5t130 -44.5q83 0 134 34z" />
    <glyph glyph-name="Racute" unicode="&#x154;" horiz-adv-x="531" 
d="M419 879l-128 -150h-55l102 150h81zM142 329h109q74 0 114 41t40 102q0 147 -166 147h-97v-290zM506 0h-74l-169 274h-19h-102v-274h-62v674h152q118 0 176.5 -53.5t58.5 -151.5q-2 -68 -38 -117t-102 -67z" />
    <glyph glyph-name="racute" unicode="&#x155;" horiz-adv-x="314" 
d="M353 712l-128 -150h-55l102 150h81zM137 507v-86q42 92 142 92q7 0 25 -2v-62q-20 6 -40 6q-54 0 -90.5 -53.5t-36.5 -118.5v-283h-61v507h61z" />
    <glyph glyph-name="uni0156" unicode="&#x156;" horiz-adv-x="531" 
d="M155 -238l88 187h76l-110 -187h-54zM142 329h109q74 0 114 41t40 102q0 147 -166 147h-97v-290zM327 285l179 -285h-74l-169 274h-19h-102v-274h-62v674h152q118 0 176.5 -53.5t58.5 -151.5q-2 -68 -38 -117t-102 -67z" />
    <glyph glyph-name="uni0157" unicode="&#x157;" horiz-adv-x="314" 
d="M-20 -238l88 187h76l-110 -187h-54zM137 507v-86q42 92 142 92q7 0 25 -2v-62q-20 6 -40 6q-54 0 -90.5 -53.5t-36.5 -118.5v-283h-61v507h61z" />
    <glyph glyph-name="Rcaron" unicode="&#x158;" horiz-adv-x="531" 
d="M300 728h-63l-119 150h64l87 -107l86 107h64zM142 329h109q74 0 114 41t40 102q0 147 -166 147h-97v-290zM506 0h-74l-169 274h-19h-102v-274h-62v674h152q118 0 176.5 -53.5t58.5 -151.5q-2 -68 -38 -117t-102 -67z" />
    <glyph glyph-name="rcaron" unicode="&#x159;" horiz-adv-x="314" 
d="M231 561h-63l-119 150h64l87 -107l86 107h64zM137 507v-86q42 92 142 92q7 0 25 -2v-62q-20 6 -40 6q-54 0 -90.5 -53.5t-36.5 -118.5v-283h-61v507h61z" />
    <glyph glyph-name="Sacute" unicode="&#x15a;" horiz-adv-x="527" 
d="M259 728l102 150h81l-128 -150h-55zM423 650v-69q-24 16 -63 27t-76 11q-67 0 -107 -31.5t-40 -83.5q0 -27 10.5 -48t35.5 -38.5t43.5 -27t56.5 -25.5q35 -15 53 -23.5t46 -26.5t42.5 -35.5t26 -45t11.5 -60.5q0 -88 -59 -134.5t-151 -46.5q-104 0 -177 44v69
q30 -23 77.5 -38t96.5 -15q71 0 110.5 31t39.5 89q0 44 -30 71.5t-87 52.5q-8 4 -35 15.5t-38 16.5t-34 17t-33.5 21t-26.5 24t-23 30t-13 35.5t-6 43.5q0 85 61 132.5t149 47.5q84 0 140 -30z" />
    <glyph glyph-name="sacute" unicode="&#x15b;" horiz-adv-x="406" 
d="M190 562l102 150h81l-128 -150h-55zM341 489v-61q-47 27 -127 27q-44 0 -69.5 -20.5t-25.5 -53.5q0 -20 7.5 -35t26 -27.5t31.5 -18.5t42 -18q70 -28 107.5 -61.5t37.5 -90.5q0 -63 -43.5 -99.5t-119.5 -36.5q-92 0 -148 30v63q67 -38 144 -38q51 0 77.5 21t26.5 55
q0 40 -27.5 62t-90.5 47q-61 24 -97 56t-36 88q0 61 45 97.5t113 36.5q82 0 126 -23z" />
    <glyph glyph-name="uni015E" unicode="&#x15e;" horiz-adv-x="527" 
d="M423 650v-69q-24 16 -63 27t-76 11q-67 0 -107 -31.5t-40 -83.5q0 -27 10.5 -48t35.5 -38.5t43.5 -27t56.5 -25.5q35 -15 53 -23.5t46 -26.5t42.5 -35.5t26 -45t11.5 -60.5q0 -88 -59 -134.5t-151 -46.5q-104 0 -177 44v69q30 -23 77.5 -38t96.5 -15q71 0 110.5 31
t39.5 89q0 44 -30 71.5t-87 52.5q-8 4 -35 15.5t-38 16.5t-34 17t-33.5 21t-26.5 24t-23 30t-13 35.5t-6 43.5q0 85 61 132.5t149 47.5q84 0 140 -30zM306 -121q0 -52 -37 -88t-106 -39v49q87 9 87 73q0 37 -23 75h61q18 -26 18 -70z" />
    <glyph glyph-name="uni015F" unicode="&#x15f;" horiz-adv-x="406" 
d="M341 489v-61q-47 27 -127 27q-44 0 -69.5 -20.5t-25.5 -53.5q0 -20 7.5 -35t26 -27.5t31.5 -18.5t42 -18q70 -28 107.5 -61.5t37.5 -90.5q0 -63 -43.5 -99.5t-119.5 -36.5q-92 0 -148 30v63q67 -38 144 -38q51 0 77.5 21t26.5 55q0 40 -27.5 62t-90.5 47q-61 24 -97 56
t-36 88q0 61 45 97.5t113 36.5q82 0 126 -23zM271 -121q0 -52 -37 -88t-106 -39v49q87 9 87 73q0 37 -23 75h61q18 -26 18 -70z" />
    <glyph glyph-name="Scaron" unicode="&#x160;" horiz-adv-x="527" 
d="M423 650v-69q-24 16 -63 27t-76 11q-67 0 -107 -31.5t-40 -83.5q0 -27 10.5 -48t35.5 -38.5t43.5 -27t56.5 -25.5q35 -15 53 -23.5t46 -26.5t42.5 -35.5t26 -45t11.5 -60.5q0 -88 -59 -134.5t-151 -46.5q-104 0 -177 44v69q30 -23 77.5 -38t96.5 -15q71 0 110.5 31
t39.5 89q0 44 -30 71.5t-87 52.5q-8 4 -35 15.5t-38 16.5t-34 17t-33.5 21t-26.5 24t-23 30t-13 35.5t-6 43.5q0 85 61 132.5t149 47.5q84 0 140 -30zM294 728h-63l-119 150h64l87 -107l86 107h64z" />
    <glyph glyph-name="scaron" unicode="&#x161;" horiz-adv-x="406" 
d="M341 489v-61q-47 27 -127 27q-44 0 -69.5 -20.5t-25.5 -53.5q0 -20 7.5 -35t26 -27.5t31.5 -18.5t42 -18q70 -28 107.5 -61.5t37.5 -90.5q0 -63 -43.5 -99.5t-119.5 -36.5q-92 0 -148 30v63q67 -38 144 -38q51 0 77.5 21t26.5 55q0 40 -27.5 62t-90.5 47q-61 24 -97 56
t-36 88q0 61 45 97.5t113 36.5q82 0 126 -23zM260 562h-63l-119 150h64l87 -107l86 107h64z" />
    <glyph glyph-name="uni0162" unicode="&#x162;" horiz-adv-x="465" 
d="M100 -238l88 187h76l-110 -187h-54zM450 674v-57h-187v-617h-62v617h-186v57h435z" />
    <glyph glyph-name="uni0163" unicode="&#x163;" horiz-adv-x="364" 
d="M49 -238l88 187h76l-110 -187h-54zM170 455v-315q0 -87 81 -87q40 0 68 23v-62q-29 -19 -67 -19q-144 0 -144 148v312h-83v52h83v127h62v-127h145v-52h-145z" />
    <glyph glyph-name="Tcaron" unicode="&#x164;" horiz-adv-x="465" 
d="M265 729h-63l-119 150h64l87 -107l86 107h64zM450 674v-57h-187v-617h-62v617h-186v57h435z" />
    <glyph glyph-name="tcaron" unicode="&#x165;" horiz-adv-x="364" 
d="M395 749l-110 -187h-54l88 187h76zM170 455v-315q0 -87 81 -87q40 0 68 23v-62q-29 -19 -67 -19q-144 0 -144 148v312h-83v52h83v127h62v-127h145v-52h-145z" />
    <glyph glyph-name="Umacron" unicode="&#x16a;" horiz-adv-x="639" 
d="M497 253v421h62v-419q0 -130 -63 -196.5t-178 -66.5q-113 0 -175.5 65t-62.5 190v427h62v-426q0 -101 47.5 -148.5t128.5 -47.5q179 0 179 201zM453 781h-263v45h263v-45z" />
    <glyph glyph-name="umacron" unicode="&#x16b;" horiz-adv-x="529" 
d="M393 659v-45h-263v45h263zM392 507h61v-507h-61v91q-40 -98 -161 -98q-74 0 -117.5 44.5t-43.5 117.5v352h61v-335q0 -58 30.5 -89t80.5 -31q67 0 108.5 48t41.5 125v282z" />
    <glyph glyph-name="Uring" unicode="&#x16e;" horiz-adv-x="639" 
d="M224 816q0 41 28.5 70t69.5 29t70 -29t29 -70t-29 -69.5t-70 -28.5q-40 0 -69 29t-29 69zM269 816q0 -22 15.5 -37.5t37.5 -15.5t38 15.5t16 37.5t-16 38t-38 16t-37.5 -16t-15.5 -38zM497 253v421h62v-419q0 -130 -63 -196.5t-178 -66.5q-113 0 -175.5 65t-62.5 190v427
h62v-426q0 -101 47.5 -148.5t128.5 -47.5q179 0 179 201z" />
    <glyph glyph-name="uring" unicode="&#x16f;" horiz-adv-x="529" 
d="M270 704q-22 0 -37.5 -16t-15.5 -38t15.5 -37.5t37.5 -15.5t38 15.5t16 37.5t-16 38t-38 16zM270 552q-40 0 -69 29t-29 69q0 41 28.5 70t69.5 29t70 -29t29 -70t-29 -69.5t-70 -28.5zM392 507h61v-507h-61v91q-40 -98 -161 -98q-74 0 -117.5 44.5t-43.5 117.5v352h61
v-335q0 -58 30.5 -89t80.5 -31q67 0 108.5 48t41.5 125v282z" />
    <glyph glyph-name="Uhungarumlaut" unicode="&#x170;" horiz-adv-x="639" 
d="M497 253v421h62v-419q0 -130 -63 -196.5t-178 -66.5q-113 0 -175.5 65t-62.5 190v427h62v-426q0 -101 47.5 -148.5t128.5 -47.5q179 0 179 201zM364 729l103 150h81l-135 -150h-49zM216 729l99 150h81l-131 -150h-49z" />
    <glyph glyph-name="uhungarumlaut" unicode="&#x171;" horiz-adv-x="529" 
d="M362 562h-49l103 150h81zM345 712l-131 -150h-49l99 150h81zM392 225v282h61v-507h-61v91q-40 -98 -161 -98q-74 0 -117.5 44.5t-43.5 117.5v352h61v-335q0 -58 30.5 -89t80.5 -31q67 0 108.5 48t41.5 125z" />
    <glyph glyph-name="Uogonek" unicode="&#x172;" horiz-adv-x="639" 
d="M497 674h62v-419q0 -202 -148 -249q-110 -50 -110 -124q0 -32 19 -48.5t51 -16.5q37 0 64 20v-50q-28 -18 -71 -18q-55 0 -87 30.5t-32 77.5q0 64 61 115q-108 4 -167 69t-59 186v427h62v-426q0 -101 47.5 -148.5t128.5 -47.5q179 0 179 201v421z" />
    <glyph glyph-name="uogonek" unicode="&#x173;" horiz-adv-x="529" 
d="M453 507v-507q-111 -50 -111 -124q0 -32 19 -48.5t51 -16.5q37 0 64 20v-50q-28 -18 -71 -18q-55 0 -87 30.5t-32 77.5q0 45 30 83.5t76 61.5v75q-40 -98 -161 -98q-74 0 -117.5 44.5t-43.5 117.5v352h61v-335q0 -58 30.5 -89t80.5 -31q67 0 108.5 48t41.5 125v282h61z
" />
    <glyph glyph-name="Ydieresis" unicode="&#x178;" horiz-adv-x="580" 
d="M381 761q-18 0 -30.5 12.5t-12.5 30.5q0 19 12.5 31t30.5 12q19 0 31 -12t12 -31q0 -18 -12 -30.5t-31 -12.5zM197 761q-19 0 -31 12.5t-12 30.5q0 19 12 31t31 12q18 0 30.5 -12t12.5 -31q0 -18 -12.5 -30.5t-30.5 -12.5zM479 674h71l-230 -422v-252h-62v252l-228 422
h71l53 -99l135 -260q8 19 137 260z" />
    <glyph glyph-name="Zacute" unicode="&#x179;" horiz-adv-x="555" 
d="M261 729l102 150h81l-128 -150h-55zM490 674v-55l-370 -564h385v-55h-455v55l370 564h-366v55h436z" />
    <glyph glyph-name="zacute" unicode="&#x17a;" horiz-adv-x="446" 
d="M200 562l102 150h81l-128 -150h-55zM387 507v-46l-270 -401h284v-60h-356v51l266 397h-256v59h332z" />
    <glyph glyph-name="Zdotaccent" unicode="&#x17b;" horiz-adv-x="555" 
d="M490 674v-55l-370 -564h385v-55h-455v55l370 564h-366v55h436zM239 807q0 19 12.5 31t30.5 12q19 0 31 -12t12 -31q0 -18 -12 -30.5t-31 -12.5q-18 0 -30.5 12.5t-12.5 30.5z" />
    <glyph glyph-name="zdotaccent" unicode="&#x17c;" horiz-adv-x="446" 
d="M387 507v-46l-270 -401h284v-60h-356v51l266 397h-256v59h332zM197 637q0 19 12.5 31t30.5 12q19 0 31 -12t12 -31q0 -18 -12 -30.5t-31 -12.5q-18 0 -30.5 12.5t-12.5 30.5z" />
    <glyph glyph-name="Zcaron" unicode="&#x17d;" horiz-adv-x="555" 
d="M490 674v-55l-370 -564h385v-55h-455v55l370 564h-366v55h436zM305 729h-63l-119 150h64l87 -107l86 107h64z" />
    <glyph glyph-name="zcaron" unicode="&#x17e;" horiz-adv-x="446" 
d="M387 507v-46l-270 -401h284v-60h-356v51l266 397h-256v59h332zM269 562h-63l-119 150h64l87 -107l86 107h64z" />
    <glyph glyph-name="florin" unicode="&#x192;" horiz-adv-x="357" 
d="M155 367l26 147q15 85 50 126t100 41q37 0 61 -8v-60q-27 10 -57 10q-73 0 -94 -116l-25 -140h100v-52h-109l-72 -405q-15 -85 -50 -126t-100 -41q-37 0 -61 8v60q27 -10 57 -10q73 0 94 116l71 398h-100v52h109z" />
    <glyph glyph-name="uni0218" unicode="&#x218;" horiz-adv-x="527" 
d="M423 650v-69q-24 16 -63 27t-76 11q-67 0 -107 -31.5t-40 -83.5q0 -27 10.5 -48t35.5 -38.5t43.5 -27t56.5 -25.5q35 -15 53 -23.5t46 -26.5t42.5 -35.5t26 -45t11.5 -60.5q0 -88 -59 -134.5t-151 -46.5q-104 0 -177 44v69q30 -23 77.5 -38t96.5 -15q71 0 110.5 31
t39.5 89q0 44 -30 71.5t-87 52.5q-8 4 -35 15.5t-38 16.5t-34 17t-33.5 21t-26.5 24t-23 30t-13 35.5t-6 43.5q0 85 61 132.5t149 47.5q84 0 140 -30zM140 -238l88 187h76l-110 -187h-54z" />
    <glyph glyph-name="uni0219" unicode="&#x219;" horiz-adv-x="406" 
d="M89 -238l88 187h76l-110 -187h-54zM341 489v-61q-47 27 -127 27q-44 0 -69.5 -20.5t-25.5 -53.5q0 -20 7.5 -35t26 -27.5t31.5 -18.5t42 -18q70 -28 107.5 -61.5t37.5 -90.5q0 -63 -43.5 -99.5t-119.5 -36.5q-92 0 -148 30v63q67 -38 144 -38q51 0 77.5 21t26.5 55
q0 40 -27.5 62t-90.5 47q-61 24 -97 56t-36 88q0 61 45 97.5t113 36.5q82 0 126 -23z" />
    <glyph glyph-name="uni021A" unicode="&#x21a;" horiz-adv-x="465" 
d="M103 -238l88 187h76l-110 -187h-54zM450 674v-57h-187v-617h-62v617h-186v57h435z" />
    <glyph glyph-name="uni021B" unicode="&#x21b;" horiz-adv-x="364" 
d="M113 -238l88 187h76l-110 -187h-54zM170 455v-315q0 -87 81 -87q40 0 68 23v-62q-29 -19 -67 -19q-144 0 -144 148v312h-83v52h83v127h62v-127h145v-52h-145z" />
    <glyph glyph-name="apostrophemod" unicode="&#x2bc;" horiz-adv-x="158" 
d="M8 481l79 214h81l-115 -214h-45z" />
    <glyph glyph-name="circumflex" unicode="&#x2c6;" horiz-adv-x="400" 
d="M168 798h63l119 -150h-64l-87 107l-86 -107h-64z" />
    <glyph glyph-name="caron" unicode="&#x2c7;" horiz-adv-x="400" 
d="M231 648h-63l-119 150h64l87 -107l86 107h64z" />
    <glyph glyph-name="uni02C9" unicode="&#x2c9;" horiz-adv-x="400" 
d="M331 704h-263v45h263v-45z" />
    <glyph glyph-name="breve" unicode="&#x2d8;" horiz-adv-x="400" 
d="M45 798h52q0 -105 103 -105t103 105h52q0 -68 -37 -110.5t-118 -42.5t-118 42.5t-37 110.5z" />
    <glyph glyph-name="dotaccent" unicode="&#x2d9;" horiz-adv-x="400" 
d="M157 727q0 19 12.5 31t30.5 12q19 0 31 -12t12 -31q0 -18 -12 -30.5t-31 -12.5q-18 0 -30.5 12.5t-12.5 30.5z" />
    <glyph glyph-name="ring" unicode="&#x2da;" horiz-adv-x="400" 
d="M101 723q0 41 28.5 70t69.5 29t70 -29t29 -70t-29 -69.5t-70 -28.5t-69.5 28.5t-28.5 69.5zM146 723q0 -22 15.5 -37.5t37.5 -15.5t38 15.5t16 37.5q0 23 -15.5 38.5t-38.5 15.5q-22 0 -37.5 -16t-15.5 -38z" />
    <glyph glyph-name="ogonek" unicode="&#x2db;" horiz-adv-x="400" 
d="M295 -209q-28 -18 -71 -18q-55 0 -87 30.5t-32 77.5q0 53 41.5 97t99.5 63l26 -31q-111 -50 -111 -124q0 -32 19 -48.5t51 -16.5q37 0 64 20v-50z" />
    <glyph glyph-name="tilde" unicode="&#x2dc;" horiz-adv-x="400" 
d="M330 760l42 -28q-30 -64 -89 -64q-25 0 -69.5 23t-60.5 23q-42 0 -67 -49l-36 30q13 29 39.5 48.5t57.5 19.5q28 0 71.5 -23t61.5 -23q30 0 50 43z" />
    <glyph glyph-name="hungarumlaut" unicode="&#x2dd;" horiz-adv-x="400" 
d="M182 648l103 150h81l-135 -150h-49zM34 648l99 150h81l-131 -150h-49z" />
    <glyph glyph-name="pi" unicode="&#x3c0;" horiz-adv-x="576" 
d="M556 507v-52h-100v-455h-61v455h-209v-303q0 -84 -38.5 -118t-106.5 -34v56q47 0 65.5 19.5t18.5 75.5v304h-100v52h531z" />
    <glyph glyph-name="dvCandrabindu" unicode="&#x901;" 
d="M-135 741q-69 0 -117 37.5t-48 110.5h62q0 -41 27 -68.5t76 -27.5t76.5 27t27.5 69h62q0 -72 -48 -110t-118 -38zM-180 944q0 20 13 33.5t33 13.5t34 -13.5t14 -33.5t-14 -33t-34 -13t-33 13t-13 33z" />
    <glyph glyph-name="dvAnusvara" unicode="&#x902;" 
d="M-180 774q0 20 13 33.5t33 13.5t34 -13.5t14 -33.5t-14 -33t-34 -13t-33 13t-13 33z" />
    <glyph glyph-name="dvVisarga" unicode="&#x903;" horiz-adv-x="302" 
d="M52 484q0 20 13 33.5t33 13.5t34 -13.5t14 -33.5t-14 -33t-34 -13t-33 13t-13 33zM52 157q0 20 13 33.5t33 13.5t34 -13.5t14 -33.5t-14 -33t-34 -13t-33 13t-13 33z" />
    <glyph glyph-name="dvA" unicode="&#x905;" horiz-adv-x="647" 
d="M392 634h275v-55h-120v-579h-61v268h-147q2 -18 2 -27q0 -72 -52 -117t-141 -45q-64 0 -118 25v59q62 -30 119 -30q50 0 90 27t40 84q0 46 -34.5 71.5t-98.5 25.5h-33v57h33q56 0 84.5 25t28.5 67q0 87 -100 87q-53 0 -95 -23v59q43 18 93 18q79 0 121.5 -37t42.5 -98
q0 -50 -25 -82t-64 -42q54 -8 84 -49h170v256h-94v55z" />
    <glyph glyph-name="dvAA" unicode="&#x906;" horiz-adv-x="909" 
d="M929 634v-55h-120v-579h-62v579h-200v-579h-61v268h-147q2 -18 2 -27q0 -72 -52 -117t-141 -45q-64 0 -118 25v59q62 -30 119 -30q50 0 90 27t40 84q0 46 -34.5 71.5t-98.5 25.5h-33v57h33q56 0 84.5 25t28.5 67q0 87 -100 87q-53 0 -95 -23v59q43 18 93 18
q79 0 121.5 -37t42.5 -98q0 -50 -25 -82t-64 -42q54 -8 84 -49h170v256h-94v55h537z" />
    <glyph glyph-name="dvI" unicode="&#x907;" horiz-adv-x="468" 
d="M379 432h-148q-47 0 -74 -18t-27 -50q0 -34 31.5 -50t107.5 -22q169 -14 169 -136q0 -63 -46 -105t-116 -42q-92 0 -146 57v-123h-60v222h55q18 -44 59.5 -73t91.5 -29q44 0 72 25.5t28 67.5q0 37 -27.5 58.5t-95.5 25.5q-185 12 -185 123q0 57 43 90.5t115 33.5h91v92
h-337v55h508v-55h-109v-147z" />
    <glyph glyph-name="dvII" unicode="&#x908;" horiz-adv-x="468" 
d="M379 432h-148q-47 0 -74 -18t-27 -50q0 -34 31.5 -50t107.5 -22q169 -14 169 -136q0 -63 -46 -105t-116 -42q-92 0 -146 57v-123h-60v222h55q18 -44 59.5 -73t91.5 -29q44 0 72 25.5t28 67.5q0 37 -27.5 58.5t-95.5 25.5q-185 12 -185 123q0 57 43 90.5t115 33.5h91v92
h-337v55h318q-34 37 -34 95q0 52 36 90.5t100 38.5q34 0 56 -10v-56q-26 11 -56 11q-35 0 -54.5 -21.5t-19.5 -57.5q0 -47 41 -90h121v-55h-109v-147z" />
    <glyph glyph-name="dvU" unicode="&#x909;" horiz-adv-x="419" 
d="M439 634v-55h-131q38 -38 38 -97q0 -104 -97 -137q48 -4 89 -44.5t41 -105.5q0 -77 -55.5 -125t-157.5 -48q-64 0 -136 26v57q62 -30 130 -30q70 0 113.5 31t43.5 92q0 56 -45.5 87.5t-113.5 31.5h-47v55h50q123 0 123 109q0 27 -12.5 54.5t-31.5 43.5h-260v55h459z" />
    <glyph glyph-name="dvUU" unicode="&#x90a;" horiz-adv-x="684" 
d="M703 634v-55h-395q38 -38 38 -97q0 -104 -97 -137q57 -5 96 -52q12 45 52.5 75t85.5 30q84 0 127.5 -48t43.5 -130q0 -83 -46 -134.5t-123 -51.5q-13 0 -20 3v52q8 -2 17 -2q52 0 81 35t29 98q0 57 -26 91t-79 34q-50 0 -78.5 -42.5t-29.5 -101.5v-6q0 -77 -55.5 -125
t-157.5 -48q-64 0 -136 26v57q62 -30 130 -30q70 0 113.5 31t43.5 92q0 56 -45.5 87.5t-113.5 31.5h-47v55h50q123 0 123 109q0 27 -12.5 54.5t-31.5 43.5h-260v55h723z" />
    <glyph glyph-name="dvvR" unicode="&#x90b;" horiz-adv-x="792" 
d="M812 579h-391v-244l155 90v55h55v-93q0 -44 22.5 -64t71.5 -20h2v-53h-35q-45 0 -72 -22t-27 -60q0 -37 25.5 -55t64.5 -18q43 0 89 21v-53q-41 -21 -97 -21q-61 0 -102.5 32.5t-41.5 92.5q0 42 24 75t68 46q-39 21 -46 76l-156 -91v-273h-62v240l-315 -193v68l239 144
q-21 63 -54.5 98t-95.5 36q-53 -1 -103 -24v62q46 22 104 22q69 0 121.5 -40.5t78.5 -122.5l25 15v274h-379v55h832v-55z" />
    <glyph glyph-name="dvvL" unicode="&#x90c;" horiz-adv-x="745" 
d="M647 579v-416q-59 -2 -86.5 -28t-27.5 -64q0 -32 25.5 -53.5t73.5 -21.5q42 0 83 14v-54q-44 -12 -73 -12q-75 0 -122.5 34.5t-47.5 98.5q0 49 30 82.5t83 45.5v192q-35 20 -75 20q-52 0 -82 -32.5t-30 -100.5v-74h-61v75q0 129 -94 129q-47 0 -79 -40t-32 -113
q0 -88 45.5 -148.5t131.5 -60.5q29 0 49 9v-53q-22 -8 -58 -8q-103 0 -166.5 75t-63.5 187q0 89 46 146.5t121 57.5q53 0 87.5 -24.5t44.5 -70.5q22 98 136 98q43 0 80 -16v126h-605v55h785v-55h-118z" />
    <glyph glyph-name="dvEcandra" unicode="&#x90d;" horiz-adv-x="549" 
d="M394 889h62q0 -72 -48 -110t-118 -38q-69 0 -117 37.5t-48 110.5h62q0 -41 27.5 -68.5t75.5 -27.5q49 0 76.5 27t27.5 69zM569 634v-55h-91v-152q0 -66 -41.5 -108t-121.5 -42q-24 0 -39 5v53q13 -6 39 -6q101 0 101 100v150h-264v-321q0 -170 181 -170q80 0 136 32v-58
q-60 -26 -141 -26q-110 0 -174 53t-64 168v322h-110v55h589z" />
    <glyph glyph-name="dvE" unicode="&#x90f;" horiz-adv-x="549" 
d="M569 634v-55h-91v-152q0 -66 -41.5 -108t-121.5 -42q-24 0 -39 5v53q13 -6 39 -6q101 0 101 100v150h-264v-321q0 -170 181 -170q80 0 136 32v-58q-60 -26 -141 -26q-110 0 -174 53t-64 168v322h-110v55h589z" />
    <glyph glyph-name="dvAI" unicode="&#x910;" horiz-adv-x="549" 
d="M569 634v-55h-91v-152q0 -66 -41.5 -108t-121.5 -42q-24 0 -39 5v53q13 -6 39 -6q101 0 101 100v150h-264v-321q0 -170 181 -170q80 0 136 32v-58q-60 -26 -141 -26q-110 0 -174 53t-64 168v322h-110v55h424l-86 132q-36 56 -95 56l-46 -6v55q22 6 48 6q48 0 82 -21.5
t64 -67.5l101 -154h97z" />
    <glyph glyph-name="dvOcandra" unicode="&#x911;" horiz-adv-x="908" 
d="M761 889h62q0 -72 -48 -110t-118 -38q-69 0 -117 37.5t-48 110.5h62q0 -41 27 -68.5t76 -27.5t76.5 27t27.5 69zM928 634v-55h-120v-579h-62v579h-199v-579h-61v268h-147q2 -18 2 -27q0 -72 -52 -117t-141 -45q-64 0 -118 25v59q62 -30 119 -30q50 0 90 27t40 84
q0 46 -34.5 71.5t-98.5 25.5h-33v57h33q56 0 84.5 25t28.5 67q0 87 -100 87q-53 0 -95 -23v59q43 18 93 18q79 0 121.5 -37t42.5 -98q0 -50 -25 -82t-64 -42q54 -8 84 -49h170v256h-94v55h536z" />
    <glyph glyph-name="dvO" unicode="&#x913;" horiz-adv-x="909" 
d="M806 634h113v-55h-120v-579h-62v579h-190v-579h-61v268h-147q2 -18 2 -27q0 -72 -52 -117t-141 -45q-64 0 -118 25v59q62 -30 119 -30q50 0 90 27t40 84q0 46 -34.5 71.5t-98.5 25.5h-33v57h33q56 0 84.5 25t28.5 67q0 87 -100 87q-53 0 -95 -23v59q43 18 93 18
q79 0 121.5 -37t42.5 -98q0 -50 -25 -82t-64 -42q54 -8 84 -49h170v256h-94v55h346l-86 132q-36 56 -95 56l-46 -6v55q22 6 48 6q48 0 82 -21.5t64 -67.5z" />
    <glyph glyph-name="dvAU" unicode="&#x914;" horiz-adv-x="909" 
d="M819 634h110v-55h-120v-579h-62v579h-200v-579h-61v268h-147q2 -18 2 -27q0 -72 -52 -117t-141 -45q-64 0 -118 25v59q62 -30 119 -30q50 0 90 27t40 84q0 46 -34.5 71.5t-98.5 25.5h-33v57h33q56 0 84.5 25t28.5 67q0 87 -100 87q-53 0 -95 -23v59q43 18 93 18
q79 0 121.5 -37t42.5 -98q0 -50 -25 -82t-64 -42q54 -8 84 -49h170v256h-94v55h333q-52 42 -87.5 60t-75.5 18q-11 0 -25.5 -2t-24.5 -4l-9 -3v62q27 7 53 7q66 0 125 -52l82 -73l-91 119q-40 53 -115 53l-53 -6v58q29 6 55 6q101 0 159 -89z" />
    <glyph glyph-name="dvKA" unicode="&#x915;" horiz-adv-x="761" 
d="M781 579h-369v-151q43 49 119 49q80 0 130.5 -48t50.5 -128q0 -86 -56 -137t-137 -51q-15 0 -23 3v54q10 -2 21 -2q57 0 95 35t38 98q0 55 -34.5 89.5t-88.5 34.5q-46 0 -80.5 -32t-34.5 -79v-314h-62v152q-43 -49 -119 -49q-80 0 -130.5 48t-50.5 128q0 86 56 137
t137 51q15 0 23 -3v-54q-10 2 -21 2q-57 0 -95 -35t-38 -98q0 -55 34.5 -89.5t88.5 -34.5q46 0 80.5 32t34.5 79v313h-370v55h801v-55z" />
    <glyph glyph-name="dvKHA" unicode="&#x916;" horiz-adv-x="763" 
d="M783 634v-55h-120v-579h-62v195q-45 -55 -126 -55q-67 0 -115 44.5t-48 114.5q0 75 47.5 119t114.5 44q30 0 53 -6v-54q-19 6 -45 6q-45 0 -76.5 -30.5t-31.5 -78.5q0 -49 30.5 -78t80.5 -29q47 0 81.5 34t34.5 86v267h-315v-146q0 -72 -47 -111t-124 -39h-12l224 -283
h-77l-220 285v53h65q129 0 129 102v139h-244v55h803z" />
    <glyph glyph-name="dvGA" unicode="&#x917;" horiz-adv-x="571" 
d="M-20 634h611v-55h-120v-579h-61v579h-191v-239q0 -62 -30 -95.5t-90 -33.5q-40 0 -69 12v59q32 -15 64 -15q64 0 64 72v240h-178v55z" />
    <glyph glyph-name="dvGHA" unicode="&#x918;" horiz-adv-x="643" 
d="M482 327v252h-271q-65 -30 -65 -96q0 -84 135 -84h51v-55h-62q-60 0 -94 -25.5t-34 -73.5q0 -47 38 -70t90 -23q88 0 150 53.5t62 121.5zM663 634v-55h-120v-579h-61v198q-32 -41 -88 -69.5t-127 -28.5q-85 0 -136 40t-51 108q0 97 106 122q-39 6 -70.5 35t-31.5 79
q0 59 46 95h-150v55h683z" />
    <glyph glyph-name="dvNGA" unicode="&#x919;" horiz-adv-x="553" 
d="M495 390q20 0 34 -13.5t14 -33.5t-14 -33t-34 -13t-33 13t-13 33t13 33.5t33 13.5zM-20 634h593v-55h-183v-150h-165q-39 0 -66 -16.5t-27 -52.5q0 -37 30.5 -55t110.5 -22q81 -4 127.5 -34t46.5 -100q0 -67 -52.5 -108.5t-141.5 -41.5q-103 0 -182 41v63q35 -22 86 -37
t96 -15q59 0 94.5 25t35.5 73q0 40 -31.5 59t-104.5 23q-177 9 -177 127q0 61 41.5 93.5t109.5 32.5h107v95h-348v55z" />
    <glyph glyph-name="dvCA" unicode="&#x91a;" horiz-adv-x="627" 
d="M647 634v-55h-120v-579h-62v194q-23 -40 -70.5 -66t-112.5 -27q-80 0 -133 43t-53 120q0 91 81 130h-147v55h337v-55q-118 0 -163.5 -38.5t-45.5 -91.5t34.5 -82t90.5 -29q86 0 134 52t48 123v251h-485v55h667z" />
    <glyph glyph-name="dvCHA" unicode="&#x91b;" horiz-adv-x="624" 
d="M431 473v106h-210q-69 -32 -69 -107q0 -45 32 -71.5t76 -26.5h28v-53h-38q-55 0 -86.5 -26.5t-31.5 -69.5q0 -53 46.5 -83.5t116.5 -30.5q91 0 149 52t58 144q0 53 -30 85t-91 32q-26 0 -42 -7v53q16 6 51 6q21 0 41 -3zM644 579h-157v-125q77 -41 77 -148
q0 -106 -76.5 -176.5t-192.5 -70.5q-100 0 -162.5 45.5t-62.5 121.5q0 52 29.5 86.5t75.5 40.5q-30 9 -57.5 40t-27.5 80q0 67 48 106h-158v55h664v-55z" />
    <glyph glyph-name="dvJA" unicode="&#x91c;" horiz-adv-x="648" 
d="M-20 634h688v-55h-120v-579h-61v394h-217q75 -45 75 -147q0 -80 -54 -131t-144 -51q-64 0 -117 23v57q58 -28 115 -28q61 0 99 34t38 94q0 74 -49 111.5t-134 37.5v54h388v131h-507v55z" />
    <glyph glyph-name="dvJHA" unicode="&#x91d;" horiz-adv-x="753" 
d="M280 311h311v268h-198v-137h-152q-100 0 -100 -66q0 -32 28.5 -45t99.5 -19zM773 634v-55h-120v-579h-62v258h-189q40 -38 40 -92q0 -63 -45 -105t-117 -42q-96 0 -150 57v-123h-60v222h55q17 -43 61 -72.5t94 -29.5q45 0 72.5 25t27.5 68q0 38 -30 63.5t-97 30.5
q-85 6 -129.5 30.5t-44.5 84.5q0 57 42.5 89.5t114.5 32.5h95v82h-351v55h793z" />
    <glyph glyph-name="dvNYA" unicode="&#x91e;" horiz-adv-x="671" 
d="M691 634v-55h-120v-579h-62v264h-133q-5 -79 -61 -129t-145 -50q-76 0 -150 36v59q67 -41 146 -41q69 0 107.5 38.5t38.5 100.5q0 58 -35 94.5t-95 36.5q-47 0 -76 -13v53q27 12 73 12q81 0 131.5 -37.5t62.5 -104.5h136v260h-529v55h711z" />
    <glyph glyph-name="dvTTA" unicode="&#x91f;" horiz-adv-x="488" 
d="M308 77q78 0 140 37v-57q-60 -32 -141 -32q-109 0 -178 56t-69 154t69.5 158t174.5 60q19 0 28 -1v127h-352v55h528v-55h-114v-182q-33 5 -64 5q-90 0 -147.5 -43t-57.5 -124q0 -75 50 -116.5t133 -41.5z" />
    <glyph glyph-name="dvTTHA" unicode="&#x920;" horiz-adv-x="561" 
d="M437 256q0 66 -42.5 101t-113.5 35q-64 0 -110.5 -33.5t-46.5 -101.5q0 -64 42 -103t114 -39q70 0 113.5 39.5t43.5 101.5zM581 579h-250v-139q75 -13 122.5 -60.5t47.5 -123.5q0 -86 -61.5 -139.5t-160.5 -53.5q-98 0 -158.5 54t-60.5 140q0 88 62 136t148 51v135h-290
v55h601v-55z" />
    <glyph glyph-name="dvDDA" unicode="&#x921;" horiz-adv-x="517" 
d="M390 429h-165q-39 0 -66 -16.5t-27 -52.5q0 -37 30.5 -55t110.5 -22q81 -4 127.5 -34t46.5 -100q0 -67 -52.5 -108.5t-141.5 -41.5q-103 0 -182 41v63q35 -22 86 -37t96 -15q59 0 94.5 25t35.5 73q0 40 -31.5 59t-104.5 23q-177 9 -177 127q0 61 41.5 93.5t109.5 32.5
h107v95h-348v55h557v-55h-147v-150z" />
    <glyph glyph-name="dvDDHA" unicode="&#x922;" horiz-adv-x="554" 
d="M266 215v56q40 20 91 20q67 0 102 -33t35 -85q0 -64 -53.5 -106.5t-139.5 -42.5q-103 0 -172 59.5t-69 158.5q0 91 67 156.5t179 65.5q26 0 55 -3v118h-381v55h594v-55h-151v-180q-57 9 -102 9q-94 0 -145.5 -47.5t-51.5 -119.5q0 -74 49.5 -119.5t126.5 -45.5
q58 0 95 26t37 71q0 29 -21 47.5t-56 18.5q-50 0 -89 -24z" />
    <glyph glyph-name="dvNNA" unicode="&#x923;" horiz-adv-x="740" 
d="M343 349v230h-201v-229q0 -120 97 -120q104 0 104 119zM760 634v-55h-120v-579h-62v579h-173v-230q0 -83 -42 -127.5t-124 -44.5q-81 0 -120 42.5t-39 130.5v229h-100v55h780z" />
    <glyph glyph-name="dvTA" unicode="&#x924;" horiz-adv-x="582" 
d="M-20 634h622v-55h-120v-579h-61v391h-101q-187 0 -187 -167q0 -78 39 -124t115 -46q14 0 24 2v-54q-12 -2 -27 -2q-98 0 -156 63.5t-58 161.5q0 99 61.5 160t177.5 61h112v133h-441v55z" />
    <glyph glyph-name="dvTHA" unicode="&#x925;" horiz-adv-x="630" 
d="M348 507q0 -84 -63.5 -133.5t-181.5 -75.5q28 -132 170 -132q82 0 139 54.5t57 153.5v260h181v-55h-120v-579h-61v220q-18 -38 -72 -72.5t-124 -34.5q-95 0 -162.5 54.5t-80.5 167.5q131 27 193.5 67t62.5 103q0 36 -18.5 59t-54.5 23t-54.5 -21t-18.5 -53q0 -16 2.5 -27
t6.5 -19.5t4 -9.5h-62q-13 36 -13 63q0 48 38 83.5t97 35.5q65 0 100 -38.5t35 -93.5z" />
    <glyph glyph-name="dvDA" unicode="&#x926;" horiz-adv-x="542" 
d="M-20 634h582v-55h-122v-164h-167q-72 0 -113.5 -37.5t-41.5 -103.5q0 -70 37.5 -109.5t100.5 -39.5t100.5 35t37.5 87h58v-257h-61v135q-44 -52 -136 -52t-148.5 57t-56.5 141q0 87 57.5 142.5t158.5 55.5h113v110h-399v55z" />
    <glyph glyph-name="dvDHA" unicode="&#x927;" horiz-adv-x="632" 
d="M652 634v-55h-120v-579h-61v163q-24 -41 -75 -70.5t-121 -29.5q-96 0 -150.5 45t-54.5 112q0 55 33.5 89t85.5 41q-53 7 -85 38t-32 86q0 70 66 105h-158v55h306v-55q-71 0 -111.5 -30.5t-40.5 -76.5q0 -49 42.5 -72.5t106.5 -23.5h53v-53h-62q-65 0 -103 -28.5
t-38 -77.5q0 -44 38 -72.5t104 -28.5q88 0 142 56t54 117v345h181z" />
    <glyph glyph-name="dvNA" unicode="&#x928;" horiz-adv-x="480" 
d="M-20 634h520v-55h-120v-579h-62v332h-190q-32 0 -32 -37q0 -35 14 -75h-53q-27 52 -27 97q0 69 81 69h207v193h-338v55z" />
    <glyph glyph-name="dvPA" unicode="&#x92a;" horiz-adv-x="547" 
d="M385 383v196h-253v-204q0 -78 28 -112t87 -34q57 0 97.5 41.5t40.5 112.5zM567 634v-55h-120v-579h-62v245q-45 -67 -137 -68q-178 0 -178 198v204h-90v55h587z" />
    <glyph glyph-name="dvPHA" unicode="&#x92b;" horiz-adv-x="777" 
d="M385 383v196h-253v-204q0 -77 27.5 -109.5t87.5 -32.5q58 0 98 39.5t40 110.5zM797 579h-350v-148q43 49 119 49q80 0 130.5 -48t50.5 -128q0 -86 -56 -137t-137 -51q-16 0 -23 3v54q10 -2 21 -2q57 0 95 35t38 98q0 55 -34.5 89.5t-88.5 34.5q-48 0 -81.5 -33t-33.5 -81
v-314h-62v246q-44 -64 -137 -65q-90 0 -134 43.5t-44 145.5v209h-90v55h817v-55z" />
    <glyph glyph-name="dvBA" unicode="&#x92c;" horiz-adv-x="611" 
d="M374 164l-221 225q-34 -40 -34 -103q0 -66 42 -108.5t107 -42.5q61 0 106 29zM631 634v-55h-120v-579h-61v173q-23 -38 -72.5 -64t-112.5 -26q-85 0 -145 56.5t-60 146.5q0 91 61.5 148t154.5 57q41 0 83 -11v-55q-42 14 -80 14q-51 0 -87 -19l217 -225q41 50 41 115v269
h-470v55h651z" />
    <glyph glyph-name="dvBHA" unicode="&#x92d;" horiz-adv-x="545" 
d="M383 339v295h182v-55h-120v-579h-62v285h-208v-140h-55l-22 50q-27 63 -27 90q0 19 12 33.5t30 18.5v177q0 37 -10 53.5t-36 16.5q-31 0 -57 -13v53q28 14 66 14q99 0 99 -112v-187h208z" />
    <glyph glyph-name="dvMA" unicode="&#x92e;" horiz-adv-x="569" 
d="M-20 579v55h609v-55h-120v-579h-62v285h-223v-140h-55l-22 50q-27 63 -27 90q0 19 12 33.5t30 18.5v242h-142zM407 579h-223v-240h223v240z" />
    <glyph glyph-name="dvYA" unicode="&#x92f;" horiz-adv-x="623" 
d="M296 130q-92 0 -156.5 61t-79.5 173q79 13 121.5 46t42.5 78q0 52 -31 91h-213v55h663v-55h-120v-579h-61v201q-54 -71 -166 -71zM299 182q72 0 117.5 40t45.5 105v252h-202q26 -39 26 -94q0 -117 -153 -164q13 -60 58.5 -99.5t107.5 -39.5z" />
    <glyph glyph-name="dvRA" unicode="&#x930;" horiz-adv-x="365" 
d="M30 285v53h65q129 0 129 102v139h-244v55h405v-55h-99v-146q0 -72 -47 -111t-124 -39h-10l215 -283h-75z" />
    <glyph glyph-name="dvRxA" unicode="&#x931;" horiz-adv-x="365" 
d="M-22 7q0 20 13 33.5t33 13.5t34 -13.5t14 -33.5t-14 -33t-34 -13t-33 13t-13 33zM30 285v53h65q129 0 129 102v139h-244v55h405v-55h-99v-146q0 -72 -47 -111t-124 -39h-10l215 -283h-75z" />
    <glyph glyph-name="dvLA" unicode="&#x932;" horiz-adv-x="727" 
d="M-20 634h767v-55h-120v-579h-62v397q-33 20 -65 20q-52 0 -82 -32.5t-30 -100.5v-74h-61v75q0 129 -94 129q-47 0 -79 -40t-32 -113q0 -88 45.5 -148.5t131.5 -60.5q15 0 23 2v-51q-14 -3 -32 -3q-103 0 -166.5 75t-63.5 187q0 89 46 146.5t121 57.5q53 0 87.5 -24.5
t44.5 -70.5q22 98 136 98q40 0 70 -16v126h-585v55z" />
    <glyph glyph-name="dvLLA" unicode="&#x933;" horiz-adv-x="797" 
d="M685 279q0 57 -35 91t-95 34q-25 0 -44.5 -8.5t-32 -19t-24 -32t-17 -36.5t-15 -43.5t-14.5 -42.5q60 -76 147 -76q60 0 95 36.5t35 96.5zM235 146q30 0 51.5 10t35.5 32.5t21.5 40.5t18.5 53t18 52q-58 70 -143 70q-57 0 -91 -37.5t-34 -95.5q0 -57 34 -91t89 -34z
M817 579h-225v-126q71 -10 113 -57.5t42 -116.5q0 -84 -54.5 -135.5t-134.5 -51.5q-111 0 -176 77q-46 -77 -148 -77q-81 0 -132.5 49t-51.5 131q0 81 52.5 132.5t130.5 51.5q109 0 173 -71q41 62 125 70v124h-551v55h837v-55z" />
    <glyph glyph-name="dvVA" unicode="&#x935;" horiz-adv-x="566" 
d="M586 634v-55h-120v-579h-61v179q-48 -87 -166 -87q-77 0 -133 51t-56 136q0 80 54 132.5t137 52.5q34 0 62 -7v-55q-23 8 -59 8q-57 0 -94.5 -36.5t-37.5 -94.5q0 -60 38 -97.5t92 -37.5q78 0 120.5 52t42.5 123v260h-425v55h606z" />
    <glyph glyph-name="dvSHA" unicode="&#x936;" horiz-adv-x="654" 
d="M150 443h-61q-12 27 -12 61q0 54 36.5 92t98.5 38q71 0 113 -49t42 -118q0 -97 -64 -152t-151 -55h-47l229 -260h-83l-221 258v57h95q85 0 132.5 40t47.5 110q0 58 -25 86t-68 28q-38 0 -57 -23t-19 -57q0 -31 14 -56zM492 634h182v-55h-120v-579h-62v634z" />
    <glyph glyph-name="dvSSA" unicode="&#x937;" horiz-adv-x="572" 
d="M410 373v206h-268v-1l262 -253q6 21 6 48zM142 517v-142q0 -77 35 -114.5t95 -37.5q76 0 114 61zM592 634v-55h-120v-579h-62v236q-47 -63 -137 -65q-90 0 -141.5 48.5t-51.5 150.5v209h-100v55h612z" />
    <glyph glyph-name="dvSA" unicode="&#x938;" horiz-adv-x="623" 
d="M228 328h234v251h-206v-150q0 -64 -28 -101zM643 634v-55h-120v-579h-61v271h-173q-112 0 -182 9l183 -280h-75l-185 285v53h65q59 0 79 23t20 75v143h-214v55h663z" />
    <glyph glyph-name="dvHA" unicode="&#x939;" horiz-adv-x="525" 
d="M429 423h-237q-61 0 -61 -50q0 -33 18.5 -55.5t37.5 -27.5q45 16 98 16q80 0 120 -38.5t40 -90.5q0 -34 -11 -56h-61q15 19 15 53q0 35 -25.5 57.5t-77.5 22.5q-71 0 -110.5 -31.5t-39.5 -75.5q0 -53 46 -87t138 -34q68 0 122 18v-55q-64 -16 -128 -16
q-114 0 -176.5 52.5t-62.5 122.5t62 115q-66 44 -66 118q0 45 32 69.5t82 24.5h184v104h-388v55h565v-55h-116v-156z" />
    <glyph glyph-name="dvNukta" unicode="&#x93c;" 
d="M-317 -127q0 20 13 33.5t33 13.5t34 -13.5t14 -33.5t-14 -33t-34 -13t-33 13t-13 33z" />
    <glyph glyph-name="dvAvagraha" unicode="&#x93d;" horiz-adv-x="418" 
d="M209 -3q-120 0 -204 51v67q97 -64 206 -64q67 0 101.5 32t34.5 74q0 40 -35 79t-85.5 71t-100.5 64t-85 73t-35 84q0 49 29.5 77.5t83.5 28.5h264v-54h-258q-25 0 -41.5 -13.5t-16.5 -39.5q0 -23 25.5 -50t63 -51.5t82 -55.5t82 -61t63 -68.5t25.5 -77.5
q0 -66 -50.5 -116t-148.5 -50z" />
    <glyph glyph-name="dvmAA" unicode="&#x93e;" horiz-adv-x="262" 
d="M-20 579v55h302v-55h-120v-579h-62v579h-120z" />
    <glyph glyph-name="dvmI" unicode="&#x93f;" horiz-adv-x="261" 
d="M100 634v80q0 78 48 126t133 48q87 0 190.5 -34t181.5 -84v-62q-81 57 -187 89t-182 32q-60 0 -91.5 -31.5t-31.5 -85.5v-78h120v-55h-120v-579h-61v579h-120v55h120z" />
    <glyph glyph-name="dvmII" unicode="&#x940;" horiz-adv-x="261" 
d="M160 634h121v-55h-120v-579h-61v579h-120v55h118v91q0 52 -28.5 79.5t-73.5 27.5q-44 0 -71.5 -27t-27.5 -80v-17h-61v18q0 81 45.5 121.5t114.5 40.5q70 0 117 -40.5t47 -121.5v-92z" />
    <glyph glyph-name="dvmU" unicode="&#x941;" 
d="M-420 -146v72q38 -44 111.5 -85t140.5 -41q52 0 80.5 23.5t28.5 61.5q0 35 -22 54t-60 19q-21 0 -45 -8.5t-38 -17.5l-13 -8v57q39 29 97 29q73 0 108 -34.5t35 -90.5q0 -63 -46.5 -100t-122.5 -37q-65 0 -138 33t-116 73z" />
    <glyph glyph-name="dvmUU" unicode="&#x942;" 
d="M-99 -190v-52q-15 -4 -38 -4q-59 0 -98.5 34.5t-39.5 95.5q0 52 39.5 89t101.5 37t108.5 -29t70 -75.5t34.5 -94t11 -94.5h-57q0 96 -42 168.5t-121 72.5q-37 0 -60 -21t-23 -54q0 -38 25.5 -57t60.5 -19q17 0 28 3z" />
    <glyph glyph-name="dvmvR" unicode="&#x943;" 
d="M-296 -134q0 57 39.5 94t94.5 37v11h62v-59h-48q-39 0 -62.5 -22t-23.5 -61q0 -35 21 -57t64 -22q39 0 70 21v-53q-30 -20 -71 -20q-66 0 -106 36t-40 95z" />
    <glyph glyph-name="dvmvRR" unicode="&#x944;" 
d="M-109 -233h-11q-38 0 -59 -18.5t-21 -47.5q0 -30 21.5 -48t63.5 -18q45 0 75 12v-55q-33 -12 -82 -12q-60 0 -101.5 29.5t-41.5 84.5q0 61 50 89q-81 24 -81 100q0 51 37 81.5t97 32.5v11h62v-59h-34q-97 0 -97 -65q0 -62 102 -62h20v-55z" />
    <glyph glyph-name="dvmEcandra" unicode="&#x945;" 
d="M-131 741q-69 0 -117 37.5t-48 110.5h62q0 -41 27 -68.5t76 -27.5t76.5 27t27.5 69h62q0 -72 -48 -110t-118 -38z" />
    <glyph glyph-name="dvmE" unicode="&#x947;" 
d="M-400 816v55q22 6 48 6q48 0 82 -21.5t64 -67.5l106 -161h-68l-91 139q-36 56 -95 56z" />
    <glyph glyph-name="dvmAI" unicode="&#x948;" 
d="M-193 788l106 -161h-90q-56 46 -93 65.5t-79 19.5q-11 0 -25.5 -2t-23.5 -4l-10 -3v62q27 7 53 7q66 0 125 -52l82 -73l-91 119q-40 53 -115 53l-53 -6v58q29 6 55 6q101 0 159 -89z" />
    <glyph glyph-name="dvmOcandra" unicode="&#x949;" horiz-adv-x="262" 
d="M-20 579v55h302v-55h-120v-579h-62v579h-120zM128 741q-69 0 -117 37.5t-48 110.5h62q0 -41 27.5 -68.5t75.5 -27.5q49 0 76.5 27t27.5 69h62q0 -72 -48 -110t-118 -38z" />
    <glyph glyph-name="dvmO" unicode="&#x94b;" horiz-adv-x="261" 
d="M157 634h124v-55h-120v-579h-61v579h-120v55h109l-86 132q-36 56 -95 56l-46 -6v55q22 6 48 6q48 0 82 -21.5t64 -67.5z" />
    <glyph glyph-name="dvmAU" unicode="&#x94c;" horiz-adv-x="261" 
d="M167 634h114v-55h-120v-579h-61v579h-120v55h93q-52 42 -87.5 60t-75.5 18q-11 0 -25.5 -2t-24.5 -4l-9 -3v62q27 7 53 7q66 0 125 -52l82 -73l-91 119q-40 53 -115 53l-53 -6v58q29 6 55 6q101 0 159 -89z" />
    <glyph glyph-name="dvVirama" unicode="&#x94d;" 
d="M52 -231h-78l-124 162h63z" />
    <glyph glyph-name="dvOm" unicode="&#x950;" horiz-adv-x="1234" 
d="M779 193q-36 -72 -75.5 -112t-104.5 -40q-52 0 -87.5 25.5t-52.5 58.5q-7 -49 -56.5 -87t-126.5 -38q-96 0 -163 44v65q73 -55 166 -55q62 0 96.5 32t34.5 84q0 44 -34.5 70.5t-103.5 26.5h-47v55h37q119 0 119 106q0 46 -28.5 74.5t-78.5 28.5q-32 0 -66.5 -11
t-55.5 -26v58q59 34 126 34q76 0 120.5 -45t44.5 -109q0 -50 -22 -83t-55 -46q58 -1 102 -77q5 -9 19.5 -35t22 -37.5t22 -28t31 -23.5t36.5 -7q42 0 72.5 37.5t68.5 112.5l31.5 63t32 54.5t41.5 53.5t46 30.5t59 14.5q74 0 119.5 -57t45.5 -152q0 -82 -49.5 -145.5
t-134.5 -63.5q-50 0 -87 17v61q37 -24 83 -24q56 0 91 44t35 120q0 55 -26 100t-72 45q-40 0 -77 -43t-99 -170zM630 720q0 20 13 33.5t33 13.5t34 -13.5t14 -33.5t-14 -33t-34 -13t-33 13t-13 33zM675 517q-69 0 -117 37.5t-48 110.5h62q0 -41 27 -68.5t76 -27.5t76.5 27
t27.5 69h62q0 -72 -48 -110t-118 -38z" />
    <glyph glyph-name="dvKxA" unicode="&#x958;" horiz-adv-x="761" 
d="M149 10q20 0 34 -13.5t14 -33.5t-14 -33t-34 -13t-33 13t-13 33t13 33.5t33 13.5zM781 579h-369v-151q43 49 119 49q80 0 130.5 -48t50.5 -128q0 -86 -56 -137t-137 -51q-15 0 -23 3v54q10 -2 21 -2q57 0 95 35t38 98q0 55 -34.5 89.5t-88.5 34.5q-46 0 -80.5 -32
t-34.5 -79v-314h-62v152q-43 -49 -119 -49q-80 0 -130.5 48t-50.5 128q0 86 56 137t137 51q15 0 23 -3v-54q-10 2 -21 2q-57 0 -95 -35t-38 -98q0 -55 34.5 -89.5t88.5 -34.5q46 0 80.5 32t34.5 79v313h-370v55h801v-55z" />
    <glyph glyph-name="dvKHxA" unicode="&#x959;" horiz-adv-x="763" 
d="M69 20q20 0 34 -13.5t14 -33.5t-14 -33t-34 -13t-33 13t-13 33t13 33.5t33 13.5zM783 634v-55h-120v-579h-62v195q-45 -55 -126 -55q-67 0 -115 44.5t-48 114.5q0 75 47.5 119t114.5 44q30 0 53 -6v-54q-19 6 -45 6q-45 0 -76.5 -30.5t-31.5 -78.5q0 -49 30.5 -78
t80.5 -29q47 0 81.5 34t34.5 86v267h-315v-146q0 -72 -47 -111t-124 -39h-12l224 -283h-77l-220 285v53h65q129 0 129 102v139h-244v55h803z" />
    <glyph glyph-name="dvGxA" unicode="&#x95a;" horiz-adv-x="571" 
d="M119 80q20 0 34 -13.5t14 -33.5t-14 -33t-34 -13t-33 13t-13 33t13 33.5t33 13.5zM-20 634h611v-55h-120v-579h-61v579h-191v-239q0 -62 -30 -95.5t-90 -33.5q-40 0 -69 12v59q32 -15 64 -15q64 0 64 72v240h-178v55z" />
    <glyph glyph-name="dvJxA" unicode="&#x95b;" horiz-adv-x="648" 
d="M149 -40q20 0 34 -13.5t14 -33.5t-14 -33t-34 -13t-33 13t-13 33t13 33.5t33 13.5zM-20 634h688v-55h-120v-579h-61v394h-217q75 -45 75 -147q0 -80 -54 -131t-144 -51q-64 0 -117 23v57q58 -28 115 -28q61 0 99 34t38 94q0 74 -49 111.5t-134 37.5v54h388v131h-507v55z
" />
    <glyph glyph-name="dvDDxA" unicode="&#x95c;" horiz-adv-x="517" 
d="M249 -90q20 0 34 -13.5t14 -33.5t-14 -33t-34 -13t-33 13t-13 33t13 33.5t33 13.5zM390 429h-165q-39 0 -66 -16.5t-27 -52.5q0 -37 30.5 -55t110.5 -22q81 -4 127.5 -34t46.5 -100q0 -67 -52.5 -108.5t-141.5 -41.5q-103 0 -182 41v63q35 -22 86 -37t96 -15
q59 0 94.5 25t35.5 73q0 40 -31.5 59t-104.5 23q-177 9 -177 127q0 61 41.5 93.5t109.5 32.5h107v95h-348v55h557v-55h-147v-150z" />
    <glyph glyph-name="dvDDHxA" unicode="&#x95d;" horiz-adv-x="554" 
d="M266 215v56q40 20 91 20q67 0 102 -33t35 -85q0 -64 -53.5 -106.5t-139.5 -42.5q-103 0 -172 59.5t-69 158.5q0 91 67 156.5t179 65.5q26 0 55 -3v118h-381v55h594v-55h-151v-180q-57 9 -102 9q-94 0 -145.5 -47.5t-51.5 -119.5q0 -74 49.5 -119.5t126.5 -45.5
q58 0 95 26t37 71q0 29 -21 47.5t-56 18.5q-50 0 -89 -24zM256 -127q0 20 13 33.5t33 13.5t34 -13.5t14 -33.5t-14 -33t-34 -13t-33 13t-13 33z" />
    <glyph glyph-name="dvPHxA" unicode="&#x95e;" horiz-adv-x="777" 
d="M139 57q20 0 34 -13.5t14 -33.5t-14 -33t-34 -13t-33 13t-13 33t13 33.5t33 13.5zM385 383v196h-253v-204q0 -77 27.5 -109.5t87.5 -32.5q58 0 98 39.5t40 110.5zM797 579h-350v-148q43 49 119 49q80 0 130.5 -48t50.5 -128q0 -86 -56 -137t-137 -51q-16 0 -23 3v54
q10 -2 21 -2q57 0 95 35t38 98q0 55 -34.5 89.5t-88.5 34.5q-48 0 -81.5 -33t-33.5 -81v-314h-62v246q-44 -64 -137 -65q-90 0 -134 43.5t-44 145.5v209h-90v55h817v-55z" />
    <glyph glyph-name="dvvRR" unicode="&#x960;" horiz-adv-x="792" 
d="M812 579h-391v-244l155 90v55h55v-93q0 -44 22.5 -64t71.5 -20h2v-53h-38q-96 0 -96 -71q0 -29 22 -46.5t63 -17.5h25v-53h-20q-37 0 -58 -20t-21 -52q0 -33 25.5 -51t66.5 -18q42 0 87 21v-53q-39 -21 -94 -21q-62 0 -104.5 31t-42.5 86q0 73 58 99q-69 22 -69 93
q0 88 95 110q-42 18 -49 77l-156 -91v-273h-62v240l-315 -193v68l239 144q-21 63 -54.5 98t-95.5 36q-53 -1 -103 -24v62q46 22 104 22q69 0 121.5 -40.5t78.5 -122.5l25 15v274h-379v55h832v-55z" />
    <glyph glyph-name="dvvLL" unicode="&#x961;" horiz-adv-x="760" 
d="M666 579v-284q0 -42 -17.5 -77t-38.5 -54t-38.5 -43t-17.5 -47q0 -33 24 -52t67 -19h18v-54h-42q-41 0 -63 -21.5t-22 -57.5q0 -33 24.5 -58t66.5 -25q39 0 70 12v-56q-36 -11 -71 -11q-68 0 -111 38.5t-43 99.5q0 42 22.5 71.5t57.5 38.5q-60 33 -60 93q0 33 17.5 61.5
t38.5 46.5t38.5 48t17.5 66v127h-82q-68 0 -97 -32t-29 -111v-48h-62v49q0 144 -107 144q-55 0 -88 -39.5t-33 -113.5q0 -191 163 -223l-2 -56q-104 18 -163.5 89t-59.5 191q0 90 47 148t130 58q119 0 145 -105q21 102 152 102h86v104h-615v55h783v-55h-106z" />
    <glyph glyph-name="dvmvL" unicode="&#x962;" 
d="M25 -200q-61 -6 -61 -48q0 -16 11.5 -26.5t33.5 -10.5q28 0 52 9v-37q-21 -7 -46 -7q-44 0 -71.5 19.5t-27.5 55.5q0 52 59 70v100q-16 7 -31 7q-52 0 -52 -66v-44h-50v44q0 65 -42 65q-21 0 -35.5 -21t-14.5 -58q0 -42 21.5 -74t61.5 -32q19 0 36 6v-37q-17 -5 -37 -5
q-59 0 -95 40.5t-36 101.5q0 50 26.5 82.5t69.5 32.5q26 0 46 -14.5t25 -38.5q4 25 25 39.5t48 14.5q50 0 84 -26v-142z" />
    <glyph glyph-name="dvmvLL" unicode="&#x963;" 
d="M37 -321h-5q-21 0 -33 -11t-12 -29q0 -38 49 -38q29 0 56 16v-37q-28 -14 -62 -14q-37 0 -64 18t-27 51q0 45 40 60q-30 5 -46.5 22t-16.5 42t16 43.5t43 22.5v100q-16 7 -31 7q-52 0 -52 -66v-44h-50v44q0 65 -42 65q-21 0 -35 -20.5t-14 -58.5q0 -42 21 -74t61 -32
q19 0 36 6v-37q-17 -5 -37 -5q-59 0 -95 40.5t-36 101.5q0 50 26.5 82.5t69.5 32.5q26 0 46 -14.5t25 -38.5q4 25 25 39.5t48 14.5q45 0 79 -26v-142q-25 0 -40.5 -11.5t-15.5 -31.5q0 -39 62 -39h11v-39z" />
    <glyph glyph-name="danda" unicode="&#x964;" horiz-adv-x="307" 
d="M145 0v634h62v-634h-62z" />
    <glyph glyph-name="doubledanda" unicode="&#x965;" horiz-adv-x="515" 
d="M145 0v634h62v-634h-62zM353 0v634h62v-634h-62z" />
    <glyph glyph-name="dvZero" unicode="&#x966;" horiz-adv-x="537" 
d="M42 329q0 152 63 241.5t161 89.5q102 0 165.5 -89t63.5 -242q0 -152 -60 -244.5t-169 -92.5q-100 0 -162 92.5t-62 244.5zM105 329q0 -130 47 -203.5t114 -73.5q75 0 120.5 72t45.5 205q0 131 -47.5 201t-118.5 70q-64 0 -112.5 -71t-48.5 -200z" />
    <glyph glyph-name="dvOne" unicode="&#x967;" horiz-adv-x="343" 
d="M45 495v69l147 90h61v-654h-61v587z" />
    <glyph glyph-name="dvTwo" unicode="&#x968;" horiz-adv-x="502" 
d="M132 55h320v-55h-407v55q320 245 320 408q0 68 -38.5 103.5t-103.5 35.5q-75 0 -154 -58v62q68 54 156 54q84 0 144 -50.5t60 -143.5q0 -174 -297 -411z" />
    <glyph glyph-name="dvThree" unicode="&#x969;" horiz-adv-x="491" 
d="M83 562v62q54 36 130 36q96 0 147 -49t51 -120q0 -114 -104 -159q56 -13 90 -53t34 -99q0 -80 -54 -133t-153 -53q-90 0 -159 33v62q71 -37 160 -37q67 0 105 36t38 94q0 59 -42 90t-115 31h-44v55h44q56 0 96 34.5t40 92.5t-35.5 87.5t-97.5 29.5q-70 0 -131 -40z" />
    <glyph glyph-name="dvFour" unicode="&#x96a;" horiz-adv-x="569" 
d="M123 219h240v400zM524 219v-55h-101v-164h-60v164h-303v55l262 435h101v-435h101z" />
    <glyph glyph-name="dvFive" unicode="&#x96b;" horiz-adv-x="532" 
d="M170 599v-218q49 11 87 11q97 0 156 -52t59 -140q0 -96 -62 -152t-169 -56q-96 0 -166 33v62q64 -37 156 -37q177 0 177 153q0 63 -42 97t-106 34q-73 0 -152 -35v355h318v-55h-256z" />
    <glyph glyph-name="dvSix" unicode="&#x96c;" horiz-adv-x="517" 
d="M113 291v-5q0 -122 45 -179.5t119 -57.5q61 0 97 47t36 118q0 69 -36.5 109t-94.5 40q-106 0 -166 -72zM430 660v-62q-41 19 -90 19q-94 0 -151 -76.5t-71 -185.5q67 66 162 66q91 0 142.5 -57.5t51.5 -151.5q0 -97 -54.5 -158.5t-142.5 -61.5q-112 0 -169.5 80
t-57.5 214q0 105 31 191t98.5 142t161.5 56q47 0 89 -15z" />
    <glyph glyph-name="dvSeven" unicode="&#x96d;" horiz-adv-x="503" 
d="M40 654h423v-55l-275 -599h-66l276 599h-358v55z" />
    <glyph glyph-name="dvEight" unicode="&#x96e;" horiz-adv-x="539" 
d="M267 50q73 0 112 36t39 89q0 50 -37 84.5t-114 37.5q-74 -4 -110 -40.5t-36 -91.5q0 -49 38 -82t108 -33zM132 476q0 -62 38 -91.5t100 -29.5q58 0 94.5 32t36.5 91q0 52 -35.5 88t-99.5 36q-61 0 -97.5 -37t-36.5 -89zM350 327q131 -34 131 -161q0 -79 -62 -126.5
t-153 -47.5q-87 0 -147.5 46t-60.5 123q0 63 33.5 105t91.5 59q-54 16 -84 54t-30 94q0 86 59.5 136.5t137.5 50.5q80 0 139 -48.5t59 -136.5q0 -53 -30 -92t-84 -56z" />
    <glyph glyph-name="dvNine" unicode="&#x96f;" horiz-adv-x="502" 
d="M400 362v18q0 43 -7.5 80.5t-24.5 71t-49 53t-75 19.5q-60 0 -95 -45t-35 -111q0 -76 40.5 -115.5t108.5 -39.5q79 0 137 69zM84 11v62q53 -23 112 -23q99 0 145.5 62t55.5 186q-57 -62 -149 -62q-79 0 -138.5 58t-59.5 154q0 87 51.5 150.5t141.5 63.5q74 0 125 -41.5
t72.5 -103t21.5 -137.5q0 -388 -266 -388q-58 0 -112 19z" />
    <glyph glyph-name="dvAbbreviationsign" unicode="&#x970;" horiz-adv-x="416" 
d="M56 298q0 62 44 106t106 44t106 -44t44 -106t-44 -106t-106 -44t-106 44t-44 106zM112 298q0 -39 27.5 -66.5t66.5 -27.5t66.5 27.5t27.5 66.5t-27.5 66.5t-66.5 27.5t-66.5 -27.5t-27.5 -66.5z" />
    <glyph glyph-name="dvAcandra" unicode="&#x972;" horiz-adv-x="647" 
d="M621 889h62q0 -72 -48 -110t-118 -38q-69 0 -117 37.5t-48 110.5h62q0 -41 27 -68.5t76 -27.5t76.5 27t27.5 69zM392 579v55h275v-55h-120v-579h-61v268h-147q2 -18 2 -27q0 -72 -52 -117t-141 -45q-64 0 -118 25v59q62 -30 119 -30q50 0 90 27t40 84q0 46 -34.5 71.5
t-98.5 25.5h-33v57h33q56 0 84.5 25t28.5 67q0 87 -100 87q-53 0 -95 -23v59q43 18 93 18q79 0 121.5 -37t42.5 -98q0 -50 -25 -82t-64 -42q54 -8 84 -49h170v256h-94z" />
    <glyph glyph-name="zerowidthspace" unicode="&#x200b;" 
 />
    <glyph glyph-name="zerowidthnonjoiner" unicode="&#x200c;" 
d="M24 -230h-47v1041h47v-1041z" />
    <glyph glyph-name="zerowidthjoiner" unicode="&#x200d;" 
d="M129 593l-33 -33l-72 75v-865h-47v865l-69 -73l-33 33l93 93l-95 95l33 33l95 -95l96 95l32 -32l-96 -96z" />
    <glyph glyph-name="endash" unicode="&#x2013;" horiz-adv-x="536" 
d="M60 243v55h416v-55h-416z" />
    <glyph glyph-name="emdash" unicode="&#x2014;" horiz-adv-x="819" 
d="M60 245v55h699v-55h-699z" />
    <glyph glyph-name="quoteleft" unicode="&#x2018;" horiz-adv-x="157" 
d="M167 695l-79 -214h-81l115 214h45z" />
    <glyph glyph-name="quoteright" unicode="&#x2019;" horiz-adv-x="158" 
d="M8 481l79 214h81l-115 -214h-45z" />
    <glyph glyph-name="quotesinglbase" unicode="&#x201a;" horiz-adv-x="158" 
d="M4 -122l79 214h81l-115 -214h-45z" />
    <glyph glyph-name="quotedblleft" unicode="&#x201c;" horiz-adv-x="290" 
d="M168 695l-79 -214h-81l115 214h45zM300 695l-79 -214h-81l115 214h45z" />
    <glyph glyph-name="quotedblright" unicode="&#x201d;" horiz-adv-x="289" 
d="M140 481l79 214h81l-115 -214h-45zM8 481l79 214h81l-115 -214h-45z" />
    <glyph glyph-name="quotedblbase" unicode="&#x201e;" horiz-adv-x="289" 
d="M136 -122l79 214h81l-115 -214h-45zM4 -122l79 214h81l-115 -214h-45z" />
    <glyph glyph-name="dagger" unicode="&#x2020;" horiz-adv-x="514" 
d="M469 498v-56h-188v-442h-57v442h-179v56h179v176h57v-176h188z" />
    <glyph glyph-name="daggerdbl" unicode="&#x2021;" horiz-adv-x="514" 
d="M469 442h-188v-197h188v-56h-188v-189h-57v189h-179v56h179v197h-179v56h179v176h57v-176h188v-56z" />
    <glyph glyph-name="bullet" unicode="&#x2022;" horiz-adv-x="455" 
d="M95 356q0 57 37.5 95t94.5 38q56 0 94.5 -38.5t38.5 -94.5t-38 -94.5t-94 -38.5q-57 0 -95 38t-38 95z" />
    <glyph glyph-name="ellipsis" unicode="&#x2026;" horiz-adv-x="662" 
d="M30 43q0 22 14.5 36.5t36.5 14.5t36.5 -14.5t14.5 -36.5t-14.5 -36.5t-36.5 -14.5t-36.5 14.5t-14.5 36.5zM280 43q0 22 14.5 36.5t36.5 14.5t36.5 -14.5t14.5 -36.5t-14.5 -36.5t-36.5 -14.5t-36.5 14.5t-14.5 36.5zM530 43q0 22 14.5 36.5t36.5 14.5t36.5 -14.5
t14.5 -36.5t-14.5 -36.5t-36.5 -14.5t-36.5 14.5t-14.5 36.5z" />
    <glyph glyph-name="perthousand" unicode="&#x2030;" horiz-adv-x="1159" 
d="M195 -1l352 655h62l-353 -655h-61zM459 143q0 62 44 106t106 44q61 0 105.5 -44.5t44.5 -105.5q0 -62 -44 -106t-106 -44t-106 44t-44 106zM45 510q0 62 44 106t106 44q61 0 105.5 -44t44.5 -106t-44 -106t-106 -44t-106 44t-44 106zM101 510q0 -39 27.5 -66.5
t66.5 -27.5t66.5 27.5t27.5 66.5t-27.5 66.5t-66.5 27.5t-66.5 -27.5t-27.5 -66.5zM515 143q0 -39 27.5 -66.5t66.5 -27.5t66.5 27.5t27.5 66.5t-27.5 66.5t-66.5 27.5t-66.5 -27.5t-27.5 -66.5zM834 143q0 62 44 106t106 44t106 -44.5t44 -105.5q0 -62 -44 -106t-106 -44
t-106 44t-44 106zM890 143q0 -39 27.5 -66.5t66.5 -27.5t66.5 27.5t27.5 66.5t-27.5 66.5t-66.5 27.5t-66.5 -27.5t-27.5 -66.5z" />
    <glyph glyph-name="guilsinglleft" unicode="&#x2039;" horiz-adv-x="280" 
d="M250 415l-147 -162l147 -162h-70l-150 162l150 162h70z" />
    <glyph glyph-name="guilsinglright" unicode="&#x203a;" horiz-adv-x="277" 
d="M100 415l150 -162l-150 -162h-70l147 162l-147 162h70z" />
    <glyph glyph-name="fraction" unicode="&#x2044;" horiz-adv-x="324" 
d="M-9 0h-61l456 712h62z" />
    <glyph glyph-name="rupee" unicode="&#x20a8;" horiz-adv-x="866" 
d="M142 329h109q74 0 114 41t40 102q0 147 -166 147h-97v-290zM80 674h152q118 0 176.5 -53.5t58.5 -151.5q-2 -68 -38 -117t-102 -67l179 -285h-74l-169 274h-19h-102v-274h-62v674zM815 489v-61q-47 27 -127 27q-44 0 -69.5 -20.5t-25.5 -53.5q0 -20 7.5 -35t26 -27.5
t31.5 -18.5t42 -18q70 -28 107.5 -61.5t37.5 -90.5q0 -63 -43.5 -99.5t-119.5 -36.5q-92 0 -148 30v63q67 -38 144 -38q51 0 77.5 21t26.5 55q0 40 -27.5 62t-90.5 47q-61 24 -97 56t-36 88q0 61 45 97.5t113 36.5q82 0 126 -23z" />
    <glyph glyph-name="Euro" unicode="&#x20ac;" horiz-adv-x="582" 
d="M542 640v-59q-37 19 -104 19q-78 0 -133.5 -42.5t-77.5 -123.5h203v-49h-213q-4 -25 -4 -60q0 -26 3 -50h214v-49h-205q22 -83 78.5 -129t129.5 -46q71 0 109 21v-59q-41 -21 -117 -21q-96 0 -169 63t-97 171h-104v49h97q-3 24 -3 50q0 35 4 60h-98v49h106
q26 106 98.5 165.5t172.5 59.5q72 0 110 -19z" />
    <glyph glyph-name="indianrupee" unicode="&#x20b9;" horiz-adv-x="536" 
d="M486 674v-57h-167q60 -36 72 -115h95v-57h-92q-5 -82 -66.5 -131.5t-161.5 -49.5h-28l208 -264h-77l-204 264v55h101q76 0 118.5 33t47.5 93h-267v57h263q-24 115 -162 115h-101v57h421z" />
    <glyph glyph-name="uni20BA" unicode="&#x20ba;" horiz-adv-x="578" 
d="M465 363h59q0 -161 -91 -262t-229 -101h-44v297l-95 -50v61l95 50v84l-95 -50v61l95 50v152h61v-120l116 61v-61l-116 -61v-84l116 61v-61l-116 -61v-273q107 7 175.5 96.5t68.5 210.5z" />
    <glyph glyph-name="uni20BD" unicode="&#x20bd;" horiz-adv-x="594" 
d="M212 600v-289h98q81 0 126.5 35t45.5 102q0 73 -47.5 112.5t-135.5 39.5h-87zM303 256h-91v-110h206v-55h-206v-91h-62v91h-112v55h112v110h-112v55h112v344h142q119 0 186 -54.5t67 -150.5q0 -89 -64 -141.5t-178 -52.5z" />
    <glyph glyph-name="uni2113" unicode="&#x2113;" horiz-adv-x="496" 
d="M225 478v-201q72 26 111 87t39 141q0 51 -19.5 85t-55.5 34q-38 0 -56.5 -39.5t-18.5 -106.5zM225 217v-6q0 -81 25.5 -121t88.5 -40q58 0 110 31v-54q-49 -32 -114 -32q-78 0 -124.5 47t-46.5 137v26q-22 -3 -47 -3q-43 0 -72 11v58q36 -12 71 -12q26 0 48 3v219
q0 89 33 143.5t101 54.5q69 0 103.5 -50t34.5 -127q0 -98 -56.5 -176.5t-154.5 -108.5z" />
    <glyph glyph-name="trademark" unicode="&#x2122;" horiz-adv-x="678" 
d="M255 331l27 343h72l63 -180l31 -98q16 49 34 98l67 180h74l23 -343h-52l-11 167l-5 113q-9 -26 -41 -113l-60 -159h-57l-56 159l-39 113q-3 -27 -8 -113l-9 -167h-53zM0 628v46h224v-46h-85v-298h-51v298h-88z" />
    <glyph glyph-name="uni2126" unicode="&#x2126;" horiz-adv-x="778" 
d="M557 57h166v-57h-289v57q91 15 136.5 93t45.5 195q0 129 -61 206t-171 77q-107 0 -169 -77.5t-62 -205.5q0 -114 51.5 -193.5t139.5 -94.5v-57h-289v57h165q-64 40 -97.5 114.5t-33.5 173.5q0 153 80.5 248t214.5 95q139 0 217.5 -94.5t78.5 -248.5q0 -210 -123 -288z
" />
    <glyph glyph-name="estimated" unicode="&#x212e;" horiz-adv-x="833" 
d="M664 343v205q-40 53 -104.5 83.5t-140.5 30.5q-70 0 -134 -30t-110 -84v-205h489zM805 323h-630v-199q97 -115 244 -115t250 115h55q-54 -62 -134 -98t-171 -36q-161 0 -273 100t-112 243q0 145 112.5 248t272.5 103t273 -103t113 -248v-10z" />
    <glyph glyph-name="partialdiff" unicode="&#x2202;" horiz-adv-x="506" 
d="M241 50q78 0 117.5 65t41.5 163q-60 84 -155 84q-63 0 -102 -42t-39 -114q0 -67 37 -111.5t100 -44.5zM152 674h88q81 -49 151.5 -162t70.5 -226q0 -130 -59 -212t-170 -82q-90 0 -141.5 63.5t-51.5 150.5q0 97 63 154.5t145 57.5q87 0 144 -63q-22 97 -94 186.5
t-146 132.5z" />
    <glyph glyph-name="uni2206" unicode="&#x2206;" horiz-adv-x="601" 
d="M97 55h408l-72 206l-130 364q-26 -68 -133 -365zM348 674l223 -617v-57h-541v57l228 617h90z" />
    <glyph glyph-name="product" unicode="&#x220f;" horiz-adv-x="580" 
d="M504 674v-854h-62v797h-280v-634q0 -167 -146 -167q-35 0 -61 11v60q24 -12 55 -12q90 0 90 98v701h404z" />
    <glyph glyph-name="summation" unicode="&#x2211;" horiz-adv-x="430" 
d="M475 674v-57h-373l188 -373l-188 -387h373v-57h-445v57l188 387l-188 373v57h445z" />
    <glyph glyph-name="minus" unicode="&#x2212;" horiz-adv-x="544" 
d="M60 312v56h424v-56h-424z" />
    <glyph glyph-name="uni2215" unicode="&#x2215;" horiz-adv-x="324" 
d="M-9 0h-61l456 712h62z" />
    <glyph glyph-name="uni2219" unicode="&#x2219;" horiz-adv-x="222" 
d="M60 337q0 22 14.5 36.5t36.5 14.5t36.5 -14.5t14.5 -36.5t-14.5 -36.5t-36.5 -14.5t-36.5 14.5t-14.5 36.5z" />
    <glyph glyph-name="radical" unicode="&#x221a;" horiz-adv-x="736" 
d="M202 411l114 -312l90 -253q29 118 72 260q196 643 240 789h64l-327 -1095h-96l-204 555h-121l11 56h157z" />
    <glyph glyph-name="infinity" unicode="&#x221e;" horiz-adv-x="836" 
d="M110 351q0 -47 30.5 -80t82.5 -33q77 0 154 109q-24 32 -42.5 53t-49.5 39t-63 18q-53 0 -82.5 -29.5t-29.5 -76.5zM416 307q-96 -122 -200 -122q-78 0 -122 44.5t-44 116.5t46.5 118t125.5 46q60 0 105.5 -32.5t91.5 -92.5q46 60 92.5 93t106.5 33q79 0 123.5 -44
t44.5 -115q0 -72 -46.5 -119.5t-125.5 -47.5q-62 0 -106 31t-92 91zM725 348q0 45 -31 77t-83 32q-77 0 -152 -110q40 -54 74 -81t81 -27q54 0 82.5 30.5t28.5 78.5z" />
    <glyph glyph-name="integral" unicode="&#x222b;" horiz-adv-x="311" 
d="M301 700v-60q-21 8 -44 8q-30 0 -51.5 -23.5t-21.5 -70.5v-561q0 -69 -36 -110t-101 -41q-19 0 -41 6v60q21 -8 44 -8q30 0 51.5 23.5t21.5 70.5v561q0 69 36 110t101 41q19 0 41 -6z" />
    <glyph glyph-name="approxequal" unicode="&#x2248;" horiz-adv-x="625" 
d="M519 288l47 -32q-53 -85 -135 -85q-45 0 -116.5 40.5t-97.5 40.5q-70 0 -119 -72l-40 37q65 91 152 91q50 0 118.5 -40t102.5 -40q56 0 88 60zM519 487l47 -32q-53 -85 -135 -85q-45 0 -116.5 40.5t-97.5 40.5q-70 0 -119 -72l-40 37q65 91 152 91q50 0 118.5 -40
t102.5 -40q56 0 88 60z" />
    <glyph glyph-name="notequal" unicode="&#x2260;" horiz-adv-x="544" 
d="M484 410h-156l-61 -139h217v-56h-241l-40 -90h-51l40 90h-132v56h156l61 139h-217v55h241l40 90h51l-40 -90h132v-55z" />
    <glyph glyph-name="lessequal" unicode="&#x2264;" horiz-adv-x="539" 
d="M55 130v55h424v-55h-424zM479 549v-60l-404 -89l404 -90v-60l-424 101v97z" />
    <glyph glyph-name="greaterequal" unicode="&#x2265;" horiz-adv-x="539" 
d="M60 130v55h424v-55h-424zM60 549l424 -101v-97l-424 -101v60l404 90l-404 89v60z" />
    <glyph glyph-name="lozenge" unicode="&#x25ca;" horiz-adv-x="553" 
d="M374 242l49 95l-49 95l-98 188l-97 -188l-49 -95l49 -95l97 -188q32 63 98 188zM315 674l180 -337l-180 -337h-82l-175 337l175 337h82z" />
    <glyph glyph-name="dottedcircle" unicode="&#x25cc;" horiz-adv-x="660" 
d="M139 517q0 19 12.5 31.5t31.5 12.5t31.5 -12.5t12.5 -31.5q0 -20 -12.5 -32.5t-31.5 -12.5t-31.5 12.5t-12.5 32.5zM57 407q0 19 13 31.5t33 12.5q18 0 31 -12.5t13 -31.5t-13 -31.5t-31 -12.5q-20 0 -33 12.5t-13 31.5zM44 281q0 19 12.5 32t31.5 13t31.5 -12.5
t12.5 -32.5q0 -19 -12.5 -31t-31.5 -12t-31.5 12t-12.5 31zM96 165q0 19 12.5 31.5t31.5 12.5t31.5 -12.5t12.5 -31.5t-12.5 -31.5t-31.5 -12.5q-20 0 -32 12.5t-12 31.5zM197 90q0 18 13 31t32 13t31.5 -13t12.5 -31q0 -20 -12.5 -33t-31.5 -13t-32 13t-13 33zM324 74
q0 20 12 32t32 12t32.5 -12.5t12.5 -31.5t-12.5 -31.5t-32.5 -12.5t-32 12t-12 32zM445 127q0 19 12.5 31.5t31.5 12.5t32 -12.5t13 -31.5t-13 -31.5t-32 -12.5t-31.5 12.5t-12.5 31.5zM518 225q0 19 13 32t32 13q18 0 30.5 -13t12.5 -32t-12.5 -31.5t-30.5 -12.5
q-19 0 -32 12.5t-13 31.5zM528 359q0 19 12 31.5t32 12.5q19 0 31.5 -12.5t12.5 -31.5t-12.5 -31.5t-31.5 -12.5q-20 0 -32 12.5t-12 31.5zM478 477q0 19 12.5 32t31.5 13t31.5 -12.5t12.5 -32.5q0 -19 -12.5 -31.5t-31.5 -12.5t-31.5 12.5t-12.5 31.5zM383 545
q0 19 12.5 32t32.5 13q19 0 31 -12.5t12 -32.5q0 -18 -12.5 -31t-30.5 -13q-19 0 -32 13t-13 31zM257 560q0 20 12.5 32t31.5 12t31.5 -12t12.5 -32t-12.5 -32t-31.5 -12t-31.5 12t-12.5 32z" />
    <glyph glyph-name="dvK_SSA" horiz-adv-x="740" 
d="M268 587q-42 0 -70 -27t-28 -64q0 -91 102 -111q94 29 94 110q0 34 -29.5 63t-68.5 29zM580 634h183v-55h-120v-579h-62l-1 328h-258q-27 0 -59 5q-60 -16 -99.5 -49t-39.5 -82q0 -46 32 -73.5t79 -27.5q52 0 92.5 34.5t53.5 86.5h55v-222h-60v118q-14 -28 -55.5 -48.5
t-85.5 -20.5q-79 0 -127 42.5t-48 110.5q0 54 35.5 95.5t93.5 62.5q-81 47 -81 136q0 55 45.5 99t110.5 44q72 0 118 -43t46 -99q0 -78 -62 -116h214v253z" />
    <glyph glyph-name="dvJ_NYA" horiz-adv-x="712" 
d="M-30 634h803v-55h-140v-579h-62v432h-326q-46 0 -73 -16.5t-27 -49.5q0 -66 126 -66q175 0 175 -131q0 -66 -47.5 -107t-117.5 -41q-97 0 -151 59v-127h-60v222h55q19 -44 62.5 -73t93.5 -29q45 0 73 27t28 69q0 46 -35.5 62t-100.5 16q-80 0 -122.5 31t-42.5 86
q0 57 44.5 90t119.5 33h326v92h-601v55z" />
    <glyph glyph-name="dvK" horiz-adv-x="512" 
d="M412 579v-151q43 49 119 49t124 -42l-42 -42q-34 32 -86 32q-46 0 -80.5 -32t-34.5 -79v-314h-62v152q-43 -49 -119 -49q-80 0 -130.5 48t-50.5 128q0 86 56 137t137 51q15 0 23 -3v-54q-10 2 -21 2q-57 0 -95 -35t-38 -98q0 -55 34.5 -89.5t88.5 -34.5q46 0 80.5 32
t34.5 79v313h-370v55h552v-55h-120z" />
    <glyph glyph-name="dvKH" horiz-adv-x="571" 
d="M532 274v-52q-26 -12 -54 -12q-57 0 -96.5 36t-39.5 94q0 62 44.5 104.5t108.5 42.5q75 0 127 -46t52 -143q0 -100 -73 -175t-201 -75q-124 0 -211.5 77t-118.5 190v53h65q53 0 66 21t13 81v109h-234v55h611v-55h-315v-116q0 -78 -26.5 -114t-94.5 -36h-13
q21 -86 91 -148t169 -62q100 0 157 55t57 141q0 60 -29.5 98t-87.5 38q-45 0 -70.5 -27.5t-25.5 -65.5q0 -36 21.5 -58t55.5 -22q28 0 52 12z" />
    <glyph glyph-name="dvG" horiz-adv-x="299" 
d="M-20 634h339v-55h-100v-239q0 -62 -30 -95.5t-90 -33.5q-40 0 -69 12v59q32 -15 64 -15q64 0 64 72v240h-178v55z" />
    <glyph glyph-name="dvGH" horiz-adv-x="367" 
d="M440 226l29 -42q-34 -38 -88.5 -61t-113.5 -23q-85 0 -136 40t-51 108q0 97 106 122q-39 6 -70.5 35t-31.5 79q0 59 46 95h-150v55h407v-55h-176q-65 -30 -65 -96q0 -84 135 -84h51v-55h-62q-60 0 -94 -25.5t-34 -73.5q0 -47 38 -70t90 -23q48 0 94.5 19t75.5 55z" />
    <glyph glyph-name="dvNG" horiz-adv-x="553" 
d="M233 -69h63l139 -162h-78zM495 390q20 0 34 -13.5t14 -33.5t-14 -33t-34 -13t-33 13t-13 33t13 33.5t33 13.5zM-20 634h593v-55h-183v-150h-165q-39 0 -66 -16.5t-27 -52.5q0 -37 30.5 -55t110.5 -22q81 -4 127.5 -34t46.5 -100q0 -67 -52.5 -108.5t-141.5 -41.5
q-103 0 -182 41v63q35 -22 86 -37t96 -15q59 0 94.5 25t35.5 73q0 40 -31.5 59t-104.5 23q-177 9 -177 127q0 61 41.5 93.5t109.5 32.5h107v95h-348v55z" />
    <glyph glyph-name="dvC" horiz-adv-x="375" 
d="M395 634v-55h-415v55h415zM469 260l30 -43q-27 -48 -84 -82t-130 -34q-82 0 -135.5 43t-53.5 120q0 91 81 130h-147v55h337v-55q-118 0 -163.5 -38.5t-45.5 -91.5q0 -50 36.5 -80.5t93.5 -30.5q59 0 109 33t72 74z" />
    <glyph glyph-name="dvCH" horiz-adv-x="614" 
d="M634 579h-413q-69 -32 -69 -107q0 -45 32 -71.5t76 -26.5h28v-53h-38q-55 0 -86.5 -26.5t-31.5 -69.5q0 -53 46.5 -83.5t116.5 -30.5q91 0 149 52t58 144q0 53 -30 85t-91 32q-26 0 -42 -7v53q16 6 51 6q87 0 130.5 -47t43.5 -123q0 -106 -76.5 -176.5t-192.5 -70.5
q-100 0 -162.5 45.5t-62.5 121.5q0 52 29.5 86.5t75.5 40.5q-30 9 -57.5 40t-27.5 80q0 67 48 106h-158v55h654v-55z" />
    <glyph glyph-name="dvJ" horiz-adv-x="422" 
d="M442 634v-55h-462v55h462zM537 448v-54h-267q75 -45 75 -147q0 -80 -54 -131t-144 -51q-64 0 -117 23v57q58 -28 115 -28q61 0 99 34t38 94q0 74 -49 111.5t-134 37.5v54h438z" />
    <glyph glyph-name="dvJH" horiz-adv-x="540" 
d="M639 311v-53h-237q40 -38 40 -92q0 -63 -45 -105t-117 -42q-96 0 -150 57v-123h-60v222h55q17 -43 61 -72.5t94 -29.5q45 0 72.5 25t27.5 68q0 38 -30 63.5t-97 30.5q-85 6 -129.5 30.5t-44.5 84.5q0 57 42.5 89.5t114.5 32.5h95v82h-351v55h580v-55h-167v-137h-152
q-100 0 -100 -66q0 -32 28.5 -45t99.5 -19l11 -1h359z" />
    <glyph glyph-name="dvNY" horiz-adv-x="449" 
d="M469 634v-55h-489v55h489zM552 319v-55h-176q-5 -79 -61 -129t-145 -50q-76 0 -150 36v59q67 -41 146 -41q69 0 107.5 38.5t38.5 100.5q0 58 -35 94.5t-95 36.5q-47 0 -76 -13v53q27 12 73 12q81 0 131.5 -37.5t62.5 -104.5h179z" />
    <glyph glyph-name="dvTT" horiz-adv-x="488" 
d="M482 -206h-78l-124 162h63zM308 77q78 0 140 37v-57q-60 -32 -141 -32q-109 0 -178 56t-69 154t69.5 158t174.5 60q19 0 28 -1v127h-352v55h528v-55h-114v-182q-33 5 -64 5q-90 0 -147.5 -43t-57.5 -124q0 -75 50 -116.5t133 -41.5z" />
    <glyph glyph-name="dvTTH" horiz-adv-x="561" 
d="M250 -6h63l139 -162h-78zM437 256q0 66 -42.5 101t-113.5 35q-64 0 -110.5 -33.5t-46.5 -101.5q0 -64 42 -103t114 -39q70 0 113.5 39.5t43.5 101.5zM581 579h-250v-139q75 -13 122.5 -60.5t47.5 -123.5q0 -86 -61.5 -139.5t-160.5 -53.5q-98 0 -158.5 54t-60.5 140
q0 88 62 136t148 51v135h-290v55h601v-55z" />
    <glyph glyph-name="dvDD" horiz-adv-x="517" 
d="M230 -69h63l139 -162h-78zM390 429h-165q-39 0 -66 -16.5t-27 -52.5q0 -37 30.5 -55t110.5 -22q81 -4 127.5 -34t46.5 -100q0 -67 -52.5 -108.5t-141.5 -41.5q-103 0 -182 41v63q35 -22 86 -37t96 -15q59 0 94.5 25t35.5 73q0 40 -31.5 59t-104.5 23q-177 9 -177 127
q0 61 41.5 93.5t109.5 32.5h107v95h-348v55h557v-55h-147v-150z" />
    <glyph glyph-name="dvDDH" horiz-adv-x="554" 
d="M472 -207h-78l-124 162h63zM266 215v56q40 20 91 20q67 0 102 -33t35 -85q0 -64 -53.5 -106.5t-139.5 -42.5q-103 0 -172 59.5t-69 158.5q0 91 67 156.5t179 65.5q26 0 55 -3v118h-381v55h594v-55h-151v-180q-57 9 -102 9q-94 0 -145.5 -47.5t-51.5 -119.5
q0 -74 49.5 -119.5t126.5 -45.5q58 0 95 26t37 71q0 29 -21 47.5t-56 18.5q-50 0 -89 -24z" />
    <glyph glyph-name="dvNN" horiz-adv-x="495" 
d="M343 349v230h-201v-229q0 -120 97 -120q104 0 104 119zM515 634v-55h-110v-230q0 -83 -42 -127.5t-124 -44.5q-81 0 -120 42.5t-39 130.5v229h-100v55h535z" />
    <glyph glyph-name="dvT" horiz-adv-x="377" 
d="M531 391h-211q-187 0 -187 -167q0 -78 39 -124t115 -46q14 0 24 2v-54q-12 -2 -27 -2q-98 0 -156 63.5t-58 161.5q0 99 61.5 160t177.5 61h222v-55zM-20 579v55h417v-55h-417z" />
    <glyph glyph-name="dvTH" horiz-adv-x="421" 
d="M348 507q0 -84 -63.5 -133.5t-181.5 -75.5q14 -65 62 -98.5t118 -33.5q61 0 122.5 31.5t94.5 78.5l33 -45q-44 -52 -109.5 -85t-140.5 -33q-100 0 -170 54t-83 168q131 27 193.5 67t62.5 103q0 36 -18.5 59t-54.5 23t-54.5 -21t-18.5 -53q0 -16 2.5 -27t6.5 -19.5t4 -9.5
h-62q-13 36 -13 63q0 48 38 83.5t97 35.5q65 0 100 -38.5t35 -93.5z" />
    <glyph glyph-name="dvD" horiz-adv-x="542" 
d="M597 -241h-78l-124 162h63zM-20 634h582v-55h-122v-164h-167q-72 0 -113.5 -37.5t-41.5 -103.5q0 -70 37.5 -109.5t100.5 -39.5t100.5 35t37.5 87h58v-257h-61v135q-44 -52 -136 -52t-148.5 57t-56.5 141q0 87 57.5 142.5t158.5 55.5h113v110h-399v55z" />
    <glyph glyph-name="dvDH" horiz-adv-x="427" 
d="M512 249l39 -43q-111 -143 -276 -143q-96 0 -150.5 45t-54.5 112q0 55 33.5 89t85.5 41q-53 7 -85 38t-32 86q0 70 66 105h-158v55h306v-55q-71 0 -111.5 -30.5t-40.5 -76.5q0 -49 42.5 -72.5t106.5 -23.5h53v-53h-62q-65 0 -103 -28.5t-38 -77.5q0 -44 38 -72.5
t104 -28.5q146 0 237 133z" />
    <glyph glyph-name="dvN" horiz-adv-x="252" 
d="M-20 579v55h292v-55h-292zM111 386h257v-54h-240q-32 0 -32 -37q0 -35 14 -75h-53q-27 52 -27 97q0 69 81 69z" />
    <glyph glyph-name="dvP" horiz-adv-x="335" 
d="M404 343l40 -36q-26 -53 -77 -91t-119 -39q-178 0 -178 198v204h-90v55h375v-55h-223v-204q0 -78 28 -112t87 -34q51 0 93.5 32t63.5 82z" />
    <glyph glyph-name="dvPH" horiz-adv-x="607" 
d="M132 579v-204q0 -77 27.5 -109.5t87.5 -32.5q58 0 98 39.5t40 110.5v196h-253zM447 579v-149q44 50 124 50q113 0 167 -93l-46 -39q-39 80 -121 80q-52 0 -88 -32.5t-36 -81.5v-314h-62v246q-44 -64 -137 -65q-90 0 -134 43.5t-44 145.5v209h-90v55h647v-55h-180z" />
    <glyph glyph-name="dvB" horiz-adv-x="375" 
d="M395 634v-55h-415v55h415zM378 161l-225 228q-34 -40 -34 -103q0 -66 44 -108.5t111 -42.5q58 0 104 26zM465 246l36 -40q-97 -123 -230 -123q-88 0 -149.5 56.5t-61.5 146.5q0 91 61.5 148t154.5 57q41 0 83 -11v-55q-42 14 -80 14q-51 0 -87 -19l224 -231q23 22 49 57z
" />
    <glyph glyph-name="dvBH" horiz-adv-x="317" 
d="M413 339v-54h-238v-140h-55l-22 50q-27 63 -27 90q0 19 12 33.5t30 18.5v177q0 37 -10 53.5t-36 16.5q-31 0 -57 -13v53q28 14 66 14q99 0 99 -112v-187h238z" />
    <glyph glyph-name="dvM" horiz-adv-x="351" 
d="M457 339v-54h-273v-140h-55l-22 50q-27 63 -27 90q0 19 12 33.5t30 18.5v242h-142v55h391v-55h-187v-240h273z" />
    <glyph glyph-name="dvY" horiz-adv-x="387" 
d="M407 579h-147q26 -39 26 -94q0 -117 -153 -164q13 -60 58.5 -99.5t107.5 -39.5q52 0 94 26.5t59 73.5l47 -32q-60 -120 -203 -120q-92 0 -156.5 61t-79.5 173q79 13 121.5 46t42.5 78q0 52 -31 91h-213v55h427v-55z" />
    <glyph glyph-name="dvR" horiz-adv-x="365" 
d="M312 -231h-78l-124 162h63zM30 285v53h65q129 0 129 102v139h-244v55h405v-55h-99v-146q0 -72 -47 -111t-124 -39h-10l215 -283h-75z" />
    <glyph glyph-name="dvL" horiz-adv-x="469" 
d="M322 54v-51q-14 -3 -32 -3q-103 0 -166.5 75t-63.5 187q0 89 46 146.5t121 57.5q53 0 87.5 -24.5t44.5 -70.5q11 47 45.5 72.5t88.5 25.5q68 0 115 -47l-37 -40q-27 35 -76 35q-48 0 -77.5 -33t-29.5 -100v-74h-61v75q0 129 -94 129q-47 0 -79 -40t-32 -113
q0 -88 45.5 -148.5t131.5 -60.5q15 0 23 2zM-20 579v55h509v-55h-509z" />
    <glyph glyph-name="dvV" horiz-adv-x="333" 
d="M303 457v-55q-23 8 -59 8q-57 0 -94.5 -36.5t-37.5 -94.5q0 -61 42 -98t105 -37q104 0 171 96l30 -43q-28 -43 -80.5 -74t-123.5 -31q-86 0 -146 50t-60 137q0 80 54 132.5t137 52.5q34 0 62 -7zM353 579h-373v55h373v-55z" />
    <glyph glyph-name="dvSH" horiz-adv-x="413" 
d="M152 260h-47l229 -260h-83l-221 258v57h95q85 0 132.5 40t47.5 110q0 58 -25 86t-68 28q-38 0 -57 -23t-19 -57q0 -31 14 -56h-61q-12 27 -12 61q0 54 36.5 92t98.5 38q71 0 113 -49t42 -118q0 -97 -64 -152t-151 -55z" />
    <glyph glyph-name="dvSS" horiz-adv-x="341" 
d="M142 517v-142q0 -77 35 -114.5t95 -37.5q66 0 117 58zM421 325l33 -34q-21 -47 -70.5 -83t-110.5 -37q-90 0 -141.5 48.5t-51.5 150.5v209h-100v55h381v-55h-219v-1l272 -263z" />
    <glyph glyph-name="dvS" horiz-adv-x="378" 
d="M476 271h-187q-112 0 -182 9l183 -280h-75l-185 285v53h65q59 0 79 23t20 75v143h-214v55h418v-55h-142v-150q0 -64 -28 -101h248v-57z" />
    <glyph glyph-name="dvH" horiz-adv-x="525" 
d="M250 -96h63l139 -162h-78zM-20 634h565v-55h-116v-156h-237q-61 0 -61 -50q0 -33 18.5 -55.5t37.5 -27.5q45 16 98 16q80 0 120 -38.5t40 -90.5q0 -34 -11 -56h-61q15 19 15 53q0 35 -25.5 57.5t-77.5 22.5q-71 0 -110.5 -31.5t-39.5 -75.5q0 -53 46 -87t138 -34
q68 0 122 18v-55q-64 -16 -128 -16q-114 0 -176.5 52.5t-62.5 122.5t62 115q-66 44 -66 118q0 45 32 69.5t82 24.5h184v104h-388v55z" />
    <glyph glyph-name="dvLL" horiz-adv-x="797" 
d="M558 92q-111 0 -176 77q-46 -77 -148 -77q-81 0 -132.5 49t-51.5 131q0 81 52.5 132.5t130.5 51.5q109 0 173 -71q47 71 150 71q86 0 138.5 -49.5t52.5 -127.5q0 -84 -54.5 -135.5t-134.5 -51.5zM555 404q-25 0 -44.5 -8.5t-32 -19t-24 -32t-17 -36.5t-15 -43.5
t-14.5 -42.5q60 -76 147 -76q60 0 95 36.5t35 96.5q0 57 -35 91t-95 34zM235 146q30 0 51.5 10t35.5 32.5t21.5 40.5t18.5 53t18 52q-58 70 -143 70q-57 0 -91 -37.5t-34 -95.5q0 -57 34 -91t89 -34zM-20 579v55h837v-55h-837z" />
    <glyph glyph-name="dvK_SS" horiz-adv-x="523" 
d="M268 587q-42 0 -70 -27t-28 -64q0 -91 102 -111q94 29 94 110q0 34 -29.5 63t-68.5 29zM639 328h-317q-27 0 -59 5q-60 -16 -99.5 -49t-39.5 -82q0 -46 32 -73.5t79 -27.5q52 0 92.5 34.5t53.5 86.5h55v-222h-60v118q-14 -28 -55.5 -48.5t-85.5 -20.5q-79 0 -127 42.5
t-48 110.5q0 54 35.5 95.5t93.5 62.5q-81 47 -81 136q0 55 45.5 99t110.5 44q72 0 118 -43t46 -99q0 -78 -62 -116h273v-53z" />
    <glyph glyph-name="dvJ_NY" horiz-adv-x="504" 
d="M524 634v-55h-554v55h554zM711 407h-466q-100 0 -100 -62q0 -31 28 -43t98 -12q175 0 175 -129q0 -65 -47 -102.5t-118 -37.5q-97 0 -151 59v-127h-60v222h55q19 -44 62.5 -73t93.5 -29q46 0 73.5 23.5t27.5 64.5q0 46 -35 61t-101 15q-165 0 -165 106q0 56 44 87.5
t120 31.5h466v-55z" />
    <glyph glyph-name="dvKx" horiz-adv-x="511" 
d="M149 10q20 0 34 -13.5t14 -33.5t-14 -33t-34 -13t-33 13t-13 33t13 33.5t33 13.5zM412 579v-151q43 49 119 49t124 -42l-42 -42q-34 32 -86 32q-46 0 -80.5 -32t-34.5 -79v-314h-62v152q-43 -49 -119 -49q-80 0 -130.5 48t-50.5 128q0 86 56 137t137 51q15 0 23 -3v-54
q-10 2 -21 2q-57 0 -95 -35t-38 -98q0 -55 34.5 -89.5t88.5 -34.5q46 0 80.5 32t34.5 79v313h-370v55h552v-55h-120z" />
    <glyph glyph-name="dvKHx" horiz-adv-x="568" 
d="M79 50q20 0 34 -13.5t14 -33.5t-14 -33t-34 -13t-33 13t-13 33t13 33.5t33 13.5zM532 274v-52q-26 -12 -54 -12q-57 0 -96.5 36t-39.5 94q0 62 44.5 104.5t108.5 42.5q75 0 127 -46t52 -143q0 -100 -73 -175t-201 -75q-124 0 -211.5 77t-118.5 190v53h65q53 0 66 21
t13 81v109h-234v55h611v-55h-315v-116q0 -78 -26.5 -114t-94.5 -36h-13q21 -86 91 -148t169 -62q100 0 157 55t57 141q0 60 -29.5 98t-87.5 38q-45 0 -70.5 -27.5t-25.5 -65.5q0 -36 21.5 -58t55.5 -22q28 0 52 12z" />
    <glyph glyph-name="dvGx" horiz-adv-x="319" 
d="M119 80q20 0 34 -13.5t14 -33.5t-14 -33t-34 -13t-33 13t-13 33t13 33.5t33 13.5zM-20 634h359v-55h-120v-239q0 -62 -30 -95.5t-90 -33.5q-40 0 -69 12v59q32 -15 64 -15q64 0 64 72v240h-178v55z" />
    <glyph glyph-name="dvJx" horiz-adv-x="418" 
d="M442 634v-55h-462v55h462zM149 -40q20 0 34 -13.5t14 -33.5t-14 -33t-34 -13t-33 13t-13 33t13 33.5t33 13.5zM537 448v-54h-267q75 -45 75 -147q0 -80 -54 -131t-144 -51q-64 0 -117 23v57q58 -28 115 -28q61 0 99 34t38 94q0 74 -49 111.5t-134 37.5v54h438z" />
    <glyph glyph-name="dvPHx" horiz-adv-x="599" 
d="M139 57q20 0 34 -13.5t14 -33.5t-14 -33t-34 -13t-33 13t-13 33t13 33.5t33 13.5zM132 579v-204q0 -77 27.5 -109.5t87.5 -32.5q58 0 98 39.5t40 110.5v196h-253zM447 579v-149q44 50 124 50q113 0 167 -93l-46 -39q-39 80 -121 80q-52 0 -88 -32.5t-36 -81.5v-314h-62
v246q-44 -64 -137 -65q-90 0 -134 43.5t-44 145.5v209h-90v55h647v-55h-180z" />
    <glyph glyph-name="dvReph" 
d="M-70 803q-35 0 -54.5 -21.5t-19.5 -57.5q0 -28 16 -56t37 -45h-69q-46 37 -46 106q0 52 36 90.5t100 38.5q34 0 56 -10v-56q-26 11 -56 11z" />
    <glyph glyph-name="dvEyelash" horiz-adv-x="195" 
d="M12 368q49 -35 123 -35q75 0 148 42l15 -55q-78 -41 -161 -41q-74 0 -125 29v60zM215 579h-235v55h235v-55z" />
    <glyph glyph-name="dvRashtrasign" 
d="M-184 0h105l119 -156h-75l-96 128l-97 -128h-75z" />
    <glyph glyph-name="dvK_RA" horiz-adv-x="766" 
d="M786 579h-369v-151q43 49 119 49q80 0 130.5 -48t50.5 -128q0 -86 -56 -137t-137 -51q-16 0 -23 3v54q10 -2 21 -2q57 0 95 35t38 98q0 55 -34.5 89.5t-88.5 34.5q-46 0 -80.5 -32t-34.5 -79v-314h-62v152l-194 -197h-76l146 148q-77 1 -126.5 49.5t-49.5 126.5
q0 86 56 137t137 51q16 0 23 -3v-54q-10 2 -21 2q-57 0 -95 -35t-38 -98q0 -55 34.5 -89.5t88.5 -34.5q46 0 80.5 32t34.5 79v313h-375v55h806v-55z" />
    <glyph glyph-name="dvKH_RA" horiz-adv-x="773" 
d="M611 438v141h-345v-116q0 -78 -26.5 -114t-94.5 -36h-13q21 -86 91 -148t169 -62q100 0 161 57t61 143q0 60 -32.5 96t-92.5 36q-45 0 -70.5 -27.5t-25.5 -65.5q0 -36 21.5 -58t55.5 -22q28 0 52 12v-52q-26 -12 -54 -12q-57 0 -96.5 36t-39.5 94q0 62 44.5 104.5
t108.5 42.5q77 0 126 -49zM793 634v-55h-120v-579h-62v149q-34 -37 -102 -91.5t-215 -166.5h-94l205 157q-130 0 -217.5 71t-127.5 196v53h65q53 0 66 21t13 81v109h-224v55h813z" />
    <glyph glyph-name="dvG_RA" horiz-adv-x="576" 
d="M-20 634h616v-55h-120v-579h-61v211l-276 -231h-88l364 310v289h-191v-239q0 -62 -30 -95.5t-90 -33.5q-40 0 -69 12v59q32 -15 64 -15q64 0 64 72v240h-183v55z" />
    <glyph glyph-name="dvGH_RA" horiz-adv-x="648" 
d="M487 327v252h-271q-65 -30 -65 -96q0 -84 135 -84h51v-55h-62q-60 0 -94 -25.5t-34 -73.5q0 -47 38 -70t90 -23q88 0 150 53.5t62 121.5zM668 634v-55h-120v-579h-61v194l-273 -239h-85l165 146q-83 -11 -146 28t-63 119q0 97 106 122q-39 6 -70.5 35t-31.5 79
q0 59 46 95h-155v55h688z" />
    <glyph glyph-name="dvNG_RA" horiz-adv-x="557" 
d="M499 390q20 0 34 -13.5t14 -33.5t-14 -33t-34 -13t-33 13t-13 33t13 33.5t33 13.5zM-20 634h597v-55h-183v-150h-165q-39 0 -66 -16.5t-27 -52.5q0 -37 30.5 -55t110.5 -22q81 -4 127.5 -34t46.5 -100q0 -53 -35 -91.5t-96 -52.5l109 -142h-75l-96 128l-97 -128h-75
l107 141q-68 9 -118 36v63q35 -22 86 -37t96 -15q59 0 94.5 25t35.5 73q0 40 -31.5 59t-104.5 23q-177 9 -177 127q0 61 41.5 93.5t109.5 32.5h107v95h-352v55z" />
    <glyph glyph-name="dvC_RA" horiz-adv-x="632" 
d="M652 634v-55h-120v-579h-62v180l-276 -225h-90l176 146q-78 2 -128.5 45t-50.5 118q0 91 81 130h-147v55h337v-55q-118 0 -163.5 -38.5t-45.5 -91.5t34.5 -82t90.5 -29q84 0 133 50t49 107v269h-490v55h672z" />
    <glyph glyph-name="dvCH_RA" horiz-adv-x="633" 
d="M440 473v106h-210q-69 -32 -69 -107q0 -45 32 -71.5t76 -26.5h28v-53h-38q-55 0 -86.5 -26.5t-31.5 -69.5q0 -53 46.5 -83.5t116.5 -30.5q91 0 149 52t58 144q0 53 -30 85t-91 32q-26 0 -42 -7v53q17 6 51 6q21 0 41 -3zM653 579h-157v-125q77 -41 77 -148
q0 -88 -54.5 -153.5t-143.5 -85.5l110 -144h-75l-96 128l-97 -128h-75l107 140q-78 12 -124 55t-46 108q0 52 29.5 86.5t75.5 40.5q-30 9 -57.5 40t-27.5 80q0 67 48 106h-167v55h673v-55z" />
    <glyph glyph-name="dvJ_RA" horiz-adv-x="657" 
d="M-20 634h697v-55h-120v-579h-61v134l-277 -234h-90l367 311v183h-214q72 -42 72 -127q0 -74 -52.5 -123t-145.5 -49q-63 0 -116 23v57q58 -28 114 -28q62 0 99.5 31t37.5 87q0 66 -48.5 97.5t-134.5 31.5v54h388v131h-516v55z" />
    <glyph glyph-name="dvJH_RA" horiz-adv-x="833" 
d="M280 312h391v267h-267v-137h-152q-100 0 -100 -66q0 -32 28.5 -45t99.5 -19zM853 634v-55h-120v-579h-62v118l-264 -247h-86l350 323v65h-259q41 -38 41 -93q0 -63 -45 -105t-117 -42q-97 0 -151 57v-123h-60v222h55q17 -43 61.5 -72.5t94.5 -29.5q45 0 72.5 25t27.5 68
q0 38 -30 63.5t-97 30.5q-85 6 -129.5 30.5t-44.5 84.5q0 57 42.5 89.5t114.5 32.5h95v82h-362v55h873z" />
    <glyph glyph-name="dvNY_RA" horiz-adv-x="681" 
d="M701 634v-55h-120v-579h-62v136l-259 -236h-86l345 311v70h-133q-5 -79 -61 -129t-145 -50q-84 0 -150 35v60q67 -41 146 -41q69 0 107.5 38.5t38.5 100.5q0 58 -35 94.5t-95 36.5q-47 0 -76 -13v53q27 12 73 12q81 0 131.5 -37.5t62.5 -104.5h136v243h-539v55h721z" />
    <glyph glyph-name="dvTT_RA" horiz-adv-x="488" 
d="M394 579v-182q-33 5 -64 5q-90 0 -147.5 -43t-57.5 -124q0 -75 50 -116.5t133 -41.5q78 0 140 37v-57q-41 -23 -105 -30l105 -138h-75l-96 128l-97 -128h-75l112 147q-73 20 -115 71.5t-42 127.5q0 98 69.5 158t174.5 60q19 0 28 -1v127h-352v55h528v-55h-114z" />
    <glyph glyph-name="dvTTH_RA" horiz-adv-x="561" 
d="M437 256q0 66 -42.5 101t-113.5 35q-64 0 -110.5 -33.5t-46.5 -101.5q0 -64 42 -103t114 -39q70 0 113.5 39.5t43.5 101.5zM581 579h-250v-139q75 -13 122.5 -60.5t47.5 -123.5q0 -70 -42 -119.5t-113 -66.5l109 -143h-75l-96 128l-97 -128h-75l108 142q-74 15 -117 65.5
t-43 122.5q0 88 62 136t148 51v135h-290v55h601v-55z" />
    <glyph glyph-name="dvDD_RA" horiz-adv-x="517" 
d="M390 429h-165q-39 0 -66 -16.5t-27 -52.5q0 -38 23.5 -59.5t62.5 -22.5l88 6q68 0 104.5 -37.5t36.5 -97.5q-1 -54 -35.5 -92t-95.5 -51l109 -143h-75l-96 128l-97 -128h-75l107 141q-68 9 -118 36v63q35 -22 86 -37t96 -15q59 0 94.5 25t35.5 73q0 38 -23.5 60t-63.5 22
l-88 -7q-60 2 -99 38t-39 96q0 61 41.5 93.5t109.5 32.5h107v95h-348v55h557v-55h-147v-150z" />
    <glyph glyph-name="dvDDH_RA" horiz-adv-x="554" 
d="M423 579v-180q-57 9 -102 9q-94 0 -145.5 -47.5t-51.5 -119.5q0 -74 49.5 -119.5t126.5 -45.5q58 0 95 26t37 71q0 29 -21 47.5t-56 18.5q-50 0 -89 -24v56q40 20 91 20q67 0 102 -33t35 -85t-37 -91t-100 -52l108 -142h-75l-96 128l-97 -128h-75l110 144
q-77 18 -124.5 73.5t-47.5 136.5q0 91 67 156.5t179 65.5q26 0 55 -3v118h-381v55h594v-55h-151z" />
    <glyph glyph-name="dvNN_RA" horiz-adv-x="750" 
d="M353 349v230h-201v-229q0 -120 97 -120q104 0 104 119zM770 634v-55h-120v-579h-62v210l-254 -230h-90l344 310v289h-173v-230q0 -83 -42 -127.5t-124 -44.5q-81 0 -120 42.5t-39 130.5v229h-110v55h790z" />
    <glyph glyph-name="dvT_RA" horiz-adv-x="545" 
d="M-20 634h585v-55h-120v-579h-62v231l-276 -174l-35 45l295 185q-24 51 -67.5 83.5t-101.5 33.5q-74 0 -144 -37v59q55 32 144 32q117 0 185 -93v214h-403v55z" />
    <glyph glyph-name="dvTH_RA" horiz-adv-x="635" 
d="M353 507q0 -84 -63.5 -133.5t-181.5 -75.5q28 -132 170 -132q81 0 138.5 56.5t57.5 156.5v255h181v-55h-120v-579h-61v203l-283 -248h-82l179 158q-100 -3 -170 52t-83 170q131 27 193.5 67t62.5 103q0 36 -18.5 59t-54.5 23t-54.5 -21t-18.5 -53q0 -16 2.5 -27
t6.5 -19.5t4 -9.5h-62q-13 36 -13 63q0 48 38 83.5t97 35.5q65 0 100 -38.5t35 -93.5z" />
    <glyph glyph-name="dvD_RA" horiz-adv-x="547" 
d="M-20 634h587v-55h-122v-164h-167q-72 0 -113.5 -37.5t-41.5 -103.5q0 -70 37.5 -109.5t100.5 -39.5t100.5 35t37.5 87h58v-257h-61v135l-201 -181h-82l141 129q-92 4 -145.5 60t-53.5 138q0 87 57.5 142.5t158.5 55.5h113v110h-404v55z" />
    <glyph glyph-name="dvDH_RA" horiz-adv-x="637" 
d="M657 634v-55h-120v-579h-61v171l-270 -216h-90l159 128q-94 2 -147 42t-53 105q0 53 35 88t84 41q-117 16 -117 115q0 70 66 105h-163v55h311v-55q-71 0 -111.5 -30.5t-40.5 -76.5q0 -87 149 -87h53v-53h-62q-61 0 -101 -27.5t-40 -73.5q0 -44 36.5 -69.5t105.5 -25.5
q88 0 142 56t54 117v325h181z" />
    <glyph glyph-name="dvN_RA" horiz-adv-x="490" 
d="M-20 634h530v-55h-120v-579h-62v306l-187 -219h-74l260 305h-201q-32 0 -32 -37q0 -35 14 -75h-53q-27 52 -27 97q0 69 81 69h219v133h-348v55z" />
    <glyph glyph-name="dvP_RA" horiz-adv-x="552" 
d="M390 403v176h-253v-184q0 -78 28 -112t87 -34q57 0 97.5 41.5t40.5 112.5zM572 634v-55h-120v-579h-62v262l-259 -262h-81l189 197q-164 8 -164 198v184h-95v55h592z" />
    <glyph glyph-name="dvPH_RA" horiz-adv-x="797" 
d="M390 403v176h-253v-184q0 -78 28 -112t87 -34q57 0 97.5 41.5t40.5 112.5zM817 579h-365v-148q43 49 119 49q80 0 130.5 -48t50.5 -128q0 -86 -56 -137t-137 -51q-15 0 -23 3v54q10 -2 21 -2q57 0 95 35t38 98q0 55 -34.5 89.5t-88.5 34.5q-48 0 -81.5 -33t-33.5 -81
v-314h-62v262l-259 -262h-81l189 197q-164 8 -164 198v184h-95v55h837v-55z" />
    <glyph glyph-name="dvB_RA" horiz-adv-x="621" 
d="M384 164l-221 225q-34 -40 -34 -103q0 -66 42 -108.5t107 -42.5q61 0 106 29zM641 634v-55h-120v-579h-61v165l-260 -230h-85l167 148q-89 -2 -150.5 55t-61.5 148t61.5 148t154.5 57q41 0 83 -11v-55q-42 14 -80 14q-51 0 -87 -19l217 -225q41 50 41 115v269h-480v55
h661z" />
    <glyph glyph-name="dvBH_RA" horiz-adv-x="554" 
d="M392 634h182v-55h-120v-579h-62v173l-241 -213h-88l329 293v74h-208v-140h-55l-22 50q-27 63 -27 90q0 19 12 33.5t30 18.5v135q0 37 -10 53.5t-36 16.5q-31 0 -57 -13v53q28 14 66 14q99 0 99 -112v-145h208v253z" />
    <glyph glyph-name="dvM_RA" horiz-adv-x="569" 
d="M184 381h223v198h-223v-198zM-20 634h609v-55h-120v-579h-62v189l-248 -229h-89l337 313v54h-223v-140h-55l-22 50q-27 63 -27 90q0 19 12 33.5t30 18.5v200h-142v55z" />
    <glyph glyph-name="dvY_RA" horiz-adv-x="622" 
d="M461 196l-271 -241h-91l196 175q-91 0 -156 61t-80 173q79 13 121.5 46t42.5 78q0 52 -31 91h-212v55h662v-55h-120v-579h-61v196zM298 182q72 0 117.5 40t45.5 105v252h-202q26 -39 26 -94q0 -117 -153 -164q13 -60 58.5 -99.5t107.5 -39.5z" />
    <glyph glyph-name="dvV_RA" horiz-adv-x="576" 
d="M596 634v-55h-120v-579h-61v166l-255 -231h-90l173 157q-76 3 -129.5 53.5t-53.5 133.5q0 80 54 132.5t137 52.5q34 0 62 -7v-55q-23 8 -59 8q-57 0 -94.5 -36.5t-37.5 -94.5q0 -60 38 -97.5t92 -37.5q78 0 120.5 52t42.5 123v260h-435v55h616z" />
    <glyph glyph-name="dvSH_RA" horiz-adv-x="677" 
d="M164 496q0 -71 99 -128q36 24 61.5 57t25.5 68q0 38 -25 66t-67 28t-68 -27t-26 -64zM514 634h183v-55h-120v-579h-63v219l-260 -218l-49 36l242 203q-102 28 -178 64l-188 -133l-49 38l179 126q-109 66 -109 161q0 56 42 99.5t110 43.5q74 0 116 -42t42 -102
q0 -81 -97 -152q80 -34 199 -62v353z" />
    <glyph glyph-name="dvS_RA" horiz-adv-x="718" 
d="M286 579v-150q0 -15 -1 -23q54 33 115 33q91 0 157 -68v208h-271zM738 634v-55h-120v-579h-61v263l-165 -138h-88l235 191q-62 69 -138 69q-44 0 -78.5 -16.5t-73.5 -50.5q-37 -35 -104 -35h-10l185 -283h-75l-185 285v53h65q59 0 79 23t20 75v143h-244v55h758z" />
    <glyph glyph-name="dvH_RA" horiz-adv-x="557" 
d="M442 423h-250q-61 0 -61 -50q0 -29 15 -50.5t34 -29.5q51 23 115 23q94 0 155.5 -51t61.5 -142q0 -35 -11 -72h-60q12 31 12 75q0 46 -23 80l-143 -151h-78l178 189q-37 20 -92 20q-83 0 -126.5 -44t-43.5 -112q0 -74 49.5 -118t144.5 -44q68 0 122 18v-55
q-64 -16 -128 -16q-117 0 -183 61.5t-66 154.5q0 98 70 155q-64 44 -64 117q0 45 32 69.5t82 24.5h197v104h-401v55h597v-55h-135v-156z" />
    <glyph glyph-name="dvKx_RA" horiz-adv-x="766" 
d="M276 -18q20 0 34 -13.5t14 -33.5t-14 -33t-34 -13t-33 13t-13 33t13 33.5t33 13.5zM786 579h-369v-151q43 49 119 49q80 0 130.5 -48t50.5 -128q0 -86 -56 -137t-137 -51q-16 0 -23 3v54q10 -2 21 -2q57 0 95 35t38 98q0 55 -34.5 89.5t-88.5 34.5q-46 0 -80.5 -32
t-34.5 -79v-314h-62v152l-194 -197h-76l146 148q-77 1 -126.5 49.5t-49.5 126.5q0 86 56 137t137 51q16 0 23 -3v-54q-10 2 -21 2q-57 0 -95 -35t-38 -98q0 -55 34.5 -89.5t88.5 -34.5q46 0 80.5 32t34.5 79v313h-375v55h806v-55z" />
    <glyph glyph-name="dvKHx_RA" horiz-adv-x="773" 
d="M526 -20q20 0 34 -13.5t14 -33.5t-14 -33t-34 -13t-33 13t-13 33t13 33.5t33 13.5zM611 438v141h-345v-116q0 -78 -26.5 -114t-94.5 -36h-13q21 -86 91 -148t169 -62q100 0 161 57t61 143q0 60 -32.5 96t-92.5 36q-45 0 -70.5 -27.5t-25.5 -65.5q0 -36 21.5 -58t55.5 -22
q28 0 52 12v-52q-26 -12 -54 -12q-57 0 -96.5 36t-39.5 94q0 62 44.5 104.5t108.5 42.5q77 0 126 -49zM793 634v-55h-120v-579h-62v149q-34 -37 -102 -91.5t-215 -166.5h-94l205 157q-130 0 -217.5 71t-127.5 196v53h65q53 0 66 21t13 81v109h-224v55h813z" />
    <glyph glyph-name="dvGx_RA" horiz-adv-x="576" 
d="M307 -2q20 0 34 -13.5t14 -33.5t-14 -33t-34 -13t-33 13t-13 33t13 33.5t33 13.5zM-20 634h616v-55h-120v-579h-61v211l-276 -231h-88l364 310v289h-191v-239q0 -62 -30 -95.5t-90 -33.5q-40 0 -69 12v59q32 -15 64 -15q64 0 64 72v240h-183v55z" />
    <glyph glyph-name="dvJx_RA" horiz-adv-x="657" 
d="M399 -70q20 0 34 -13.5t14 -33.5t-14 -33t-34 -13t-33 13t-13 33t13 33.5t33 13.5zM-20 634h697v-55h-120v-579h-61v134l-277 -234h-90l367 311v183h-214q72 -42 72 -127q0 -74 -52.5 -123t-145.5 -49q-63 0 -116 23v57q58 -28 114 -28q62 0 99.5 31t37.5 87
q0 66 -48.5 97.5t-134.5 31.5v54h388v131h-516v55z" />
    <glyph glyph-name="dvPHx_RA" horiz-adv-x="797" 
d="M269 0q20 0 34 -13.5t14 -33.5t-14 -33t-34 -13t-33 13t-13 33t13 33.5t33 13.5zM390 403v176h-253v-184q0 -78 28 -112t87 -34q57 0 97.5 41.5t40.5 112.5zM817 579h-365v-148q43 49 119 49q80 0 130.5 -48t50.5 -128q0 -86 -56 -137t-137 -51q-15 0 -23 3v54
q10 -2 21 -2q57 0 95 35t38 98q0 55 -34.5 89.5t-88.5 34.5q-48 0 -81.5 -33t-33.5 -81v-314h-62v262l-259 -262h-81l189 197q-164 8 -164 198v184h-95v55h837v-55z" />
    <glyph glyph-name="dvK_R" horiz-adv-x="519" 
d="M417 579v-151q43 49 119 49t124 -42l-42 -42q-34 32 -86 32q-46 0 -80.5 -32t-34.5 -79v-314h-62v152l-194 -197h-76l146 148q-77 1 -126.5 49.5t-49.5 126.5q0 86 56 137t137 51q16 0 23 -3v-54q-10 2 -21 2q-57 0 -95 -35t-38 -98q0 -55 34.5 -89.5t88.5 -34.5
q46 0 80.5 32t34.5 79v313h-375v55h559v-55h-122z" />
    <glyph glyph-name="dvKH_R" horiz-adv-x="563" 
d="M522 274v-52q-26 -12 -54 -12q-57 0 -96.5 36t-39.5 94q0 62 44.5 104.5t108.5 42.5q82 0 131.5 -51.5t49.5 -132.5q0 -118 -103 -200l-269 -212h-94l205 157q-130 0 -217.5 71t-127.5 196v53h65q53 0 66 21t13 81v109h-224v55h603v-55h-317v-116q0 -78 -26.5 -114
t-94.5 -36h-13q21 -86 91 -148t169 -62q98 0 156 57t58 143q0 62 -29 97t-88 35q-45 0 -70.5 -27.5t-25.5 -65.5q0 -36 21.5 -58t55.5 -22q28 0 52 12z" />
    <glyph glyph-name="dvG_R" horiz-adv-x="380" 
d="M35 223v59q32 -15 64 -15q64 0 64 72v240h-183v55h420v-55h-176v-239q0 -62 -30 -95.5t-90 -33.5q-40 0 -69 12zM453 324l31 -53l-345 -291h-88z" />
    <glyph glyph-name="dvGH_R" horiz-adv-x="417" 
d="M496 296l31 -72l-309 -269h-89l165 146q-83 -11 -146 28t-63 119q0 97 106 122q-39 6 -70.5 35t-31.5 79q0 59 46 95h-155v55h457v-55h-221q-65 -30 -65 -96q0 -84 135 -84h51v-55h-62q-60 0 -94 -25.5t-34 -73.5q0 -47 38 -70t90 -23q74 0 135 44t86 100z" />
    <glyph glyph-name="dvC_R" horiz-adv-x="416" 
d="M436 634v-55h-456v55h456zM497 293l32 -68l-333 -270h-92l176 146q-78 2 -128.5 45t-50.5 118q0 91 81 130h-147v55h337v-55q-118 0 -163.5 -38.5t-45.5 -91.5t34.5 -82t90.5 -29q66 0 122 41.5t87 98.5z" />
    <glyph glyph-name="dvJ_R" horiz-adv-x="468" 
d="M488 634v-55h-508v55h508zM129 -100l407 347l33 -49l-350 -298h-90zM108 448h541v-54h-367q72 -42 72 -127q0 -74 -52.5 -123t-145.5 -49q-63 0 -116 23v57q58 -28 114 -28q62 0 99.5 31t37.5 87q0 66 -48.5 97.5t-134.5 31.5v54z" />
    <glyph glyph-name="dvJH_R" horiz-adv-x="602" 
d="M709 259h-297q41 -38 41 -93q0 -63 -45 -105t-117 -42q-97 0 -151 57v-123h-60v222h55q17 -43 61.5 -72.5t94.5 -29.5q45 0 72.5 25t27.5 68q0 38 -30 63.5t-97 30.5q-85 6 -129.5 30.5t-44.5 84.5q0 57 42.5 89.5t114.5 32.5h95v82h-362v55h642v-55h-218v-137h-152
q-100 0 -100 -66q0 -32 28.5 -45t99.5 -19h429v-53zM698 219l37 -49l-328 -299h-86z" />
    <glyph glyph-name="dvNY_R" horiz-adv-x="499" 
d="M519 634v-55h-539v55h539zM571 281h-185q-5 -79 -61 -129t-145 -50q-84 0 -150 35v60q67 -41 146 -41q69 0 107.5 38.5t38.5 100.5q0 58 -35 94.5t-95 36.5q-47 0 -76 -13v53q27 12 73 12q81 0 131.5 -37.5t62.5 -104.5h188v-55zM570 257l32 -46l-342 -311h-86z" />
    <glyph glyph-name="dvTT_R" horiz-adv-x="488" 
d="M248 -180h63l139 -162h-78zM-20 634h528v-55h-114v-182q-33 5 -64 5q-90 0 -147.5 -43t-57.5 -124q0 -75 50 -116.5t133 -41.5q78 0 140 37v-57q-41 -23 -105 -30l105 -138h-75l-96 128l-97 -128h-75l112 147q-73 20 -115 71.5t-42 127.5q0 98 69.5 158t174.5 60
q19 0 28 -1v127h-352v55z" />
    <glyph glyph-name="dvTTH_R" horiz-adv-x="561" 
d="M257 -142h63l139 -162h-78zM437 256q0 66 -42.5 101t-113.5 35q-64 0 -110.5 -33.5t-46.5 -101.5q0 -64 42 -103t114 -39q70 0 113.5 39.5t43.5 101.5zM581 579h-250v-139q75 -13 122.5 -60.5t47.5 -123.5q0 -70 -42 -119.5t-113 -66.5l109 -143h-75l-96 128l-97 -128
h-75l108 142q-74 15 -117 65.5t-43 122.5q0 88 62 136t148 51v135h-290v55h601v-55z" />
    <glyph glyph-name="dvDD_R" horiz-adv-x="517" 
d="M220 -206h63l139 -162h-78zM390 429h-165q-39 0 -66 -16.5t-27 -52.5q0 -38 23.5 -59.5t62.5 -22.5l88 6q68 0 104.5 -37.5t36.5 -97.5q-1 -54 -35.5 -92t-95.5 -51l109 -143h-75l-96 128l-97 -128h-75l107 141q-68 9 -118 36v63q35 -22 86 -37t96 -15q59 0 94.5 25
t35.5 73q0 38 -23.5 60t-63.5 22l-88 -7q-60 2 -99 38t-39 96q0 61 41.5 93.5t109.5 32.5h107v95h-348v55h557v-55h-147v-150z" />
    <glyph glyph-name="dvDDH_R" horiz-adv-x="554" 
d="M261 -181h63l139 -162h-78zM423 579v-180q-57 9 -102 9q-94 0 -145.5 -47.5t-51.5 -119.5q0 -74 49.5 -119.5t126.5 -45.5q58 0 95 26t37 71q0 29 -21 47.5t-56 18.5q-50 0 -89 -24v56q40 20 91 20q67 0 102 -33t35 -85t-37 -91t-100 -52l108 -142h-75l-96 128l-97 -128
h-75l110 144q-77 18 -124.5 73.5t-47.5 136.5q0 91 67 156.5t179 65.5q26 0 55 -3v118h-381v55h594v-55h-151z" />
    <glyph glyph-name="dvNN_R" horiz-adv-x="508" 
d="M142 579v-229q0 -120 97 -120q104 0 104 119v230h-201zM405 579v-230q0 -83 -42 -127.5t-124 -44.5q-81 0 -120 42.5t-39 130.5v229h-110v55h558v-55h-123zM586 297l35 -48l-297 -269h-90z" />
    <glyph glyph-name="dvT_R" horiz-adv-x="341" 
d="M361 634v-55h-381v55h381zM424 269l3 -11l-320 -201l-35 45l295 184q-24 52 -67.5 84.5t-101.5 33.5q-74 0 -144 -37v59q55 32 144 32q71 0 128.5 -38t84.5 -106l1 -2q8 -22 12 -43z" />
    <glyph glyph-name="dvTH_R" horiz-adv-x="429" 
d="M353 507q0 -84 -63.5 -133.5t-181.5 -75.5q28 -132 170 -132q64 0 118 32.5t89 85.5l44 -44l-328 -285h-82l179 158q-104 -4 -177 50.5t-86 171.5q131 27 193.5 67t62.5 103q0 36 -18.5 59t-54.5 23t-54.5 -21t-18.5 -53q0 -16 2.5 -27t6.5 -19.5t4 -9.5h-62
q-13 36 -13 63q0 48 38 83.5t97 35.5q65 0 100 -38.5t35 -93.5z" />
    <glyph glyph-name="dvD_R" horiz-adv-x="547" 
d="M485 -287h-78l-124 162h63zM-20 634h587v-55h-122v-164h-167q-72 0 -113.5 -37.5t-41.5 -103.5q0 -70 37.5 -109.5t100.5 -39.5t100.5 35t37.5 87h58v-257h-61v135l-201 -181h-82l141 129q-92 4 -145.5 60t-53.5 138q0 87 57.5 142.5t158.5 55.5h113v110h-404v55z" />
    <glyph glyph-name="dvDH_R" horiz-adv-x="439" 
d="M521 285l37 -54l-349 -276h-93l163 128q-95 2 -149.5 41t-54.5 106q0 53 35 88t84 41q-117 16 -117 115q0 70 66 105h-163v55h311v-55q-71 0 -111.5 -30.5t-40.5 -76.5q0 -87 149 -87h53v-53h-62q-61 0 -101 -27.5t-40 -73.5q0 -44 36.5 -69.5t105.5 -25.5q65 0 120 38.5
t121 110.5z" />
    <glyph glyph-name="dvN_R" horiz-adv-x="262" 
d="M282 634v-55h-302v55h302zM109 446h316v-54l-284 -305h-74l281 305h-222q-32 0 -32 -37q0 -35 14 -75h-53q-27 52 -27 97q0 69 81 69z" />
    <glyph glyph-name="dvP_R" horiz-adv-x="338" 
d="M421 374l32 -48l-322 -326h-81l189 197q-164 8 -164 198v184h-95v55h378v-55h-221v-184q0 -78 28 -112t87 -34q92 0 169 125z" />
    <glyph glyph-name="dvPH_R" horiz-adv-x="600" 
d="M137 579v-184q0 -78 28 -112t87 -34q57 0 97.5 41.5t40.5 112.5v176h-253zM452 579v-149q44 50 124 50q113 0 167 -93l-46 -39q-39 80 -121 80q-52 0 -88 -32.5t-36 -81.5v-314h-62v262l-259 -262h-81l189 197q-164 8 -164 198v184h-95v55h640v-55h-168z" />
    <glyph glyph-name="dvB_R" horiz-adv-x="373" 
d="M393 634v-55h-413v55h413zM383 166l-220 223q-34 -40 -34 -103q0 -66 42 -108.5t107 -42.5q58 0 105 31zM460 258l30 -67l-290 -256h-85l167 148q-89 -2 -150.5 55t-61.5 148t61.5 148t154.5 57q41 0 83 -11v-55q-42 14 -80 14q-51 0 -87 -19l216 -223q24 26 42 61z" />
    <glyph glyph-name="dvBH_R" horiz-adv-x="363" 
d="M184 381h296v-54l-329 -367h-88l337 367h-216v-140h-55l-22 50q-27 63 -27 90q0 19 12 33.5t30 18.5v135q0 37 -10 53.5t-36 16.5q-31 0 -57 -13v53q28 14 66 14q99 0 99 -112v-145z" />
    <glyph glyph-name="dvM_R" horiz-adv-x="372" 
d="M184 381h303v-54l-328 -367h-89l334 367h-220v-140h-55l-22 50q-27 63 -27 90q0 19 12 33.5t30 18.5v200h-142v55h412v-55h-208v-198z" />
    <glyph glyph-name="dvY_R" horiz-adv-x="382" 
d="M402 579h-143q26 -39 26 -94q0 -117 -153 -164q13 -60 58.5 -99.5t107.5 -39.5q49 0 89.5 21.5t79.5 75.5l28 -53l-305 -271h-91l196 175q-91 0 -156 61t-80 173q79 13 121.5 46t42.5 78q0 52 -31 91h-212v55h422v-55z" />
    <glyph glyph-name="dvV_R" horiz-adv-x="356" 
d="M313 457v-55q-23 8 -59 8q-57 0 -94.5 -36.5t-37.5 -94.5q0 -60 38 -97.5t92 -37.5t98 29.5t90 90.5l36 -51l-310 -278h-88l175 157q-82 0 -137.5 51t-55.5 136q0 80 54 132.5t137 52.5q34 0 62 -7zM376 579h-396v55h396v-55z" />
    <glyph glyph-name="dvS_R" horiz-adv-x="520" 
d="M286 579v-150q0 -15 -1 -23q54 33 115 33q129 0 209 -133l-39 -33l-178 -148h-88l235 191q-62 69 -138 69q-44 0 -78.5 -16.5t-73.5 -50.5q-37 -35 -104 -35h-10l185 -283h-75l-185 285v53h65q59 0 79 23t20 75v143h-244v55h758v-55h-452z" />
    <glyph glyph-name="dvKx_R" horiz-adv-x="519" 
d="M280 -80q20 0 34 -13.5t14 -33.5t-14 -33t-34 -13t-33 13t-13 33t13 33.5t33 13.5zM417 579v-151q43 49 119 49t124 -42l-42 -42q-34 32 -86 32q-46 0 -80.5 -32t-34.5 -79v-314h-62v152l-194 -197h-76l146 148q-77 1 -126.5 49.5t-49.5 126.5q0 86 56 137t137 51
q16 0 23 -3v-54q-10 2 -21 2q-57 0 -95 -35t-38 -98q0 -55 34.5 -89.5t88.5 -34.5q46 0 80.5 32t34.5 79v313h-375v55h559v-55h-122z" />
    <glyph glyph-name="dvKHx_R" horiz-adv-x="563" 
d="M524 -80q20 0 34 -13.5t14 -33.5t-14 -33t-34 -13t-33 13t-13 33t13 33.5t33 13.5zM522 274v-52q-26 -12 -54 -12q-57 0 -96.5 36t-39.5 94q0 62 44.5 104.5t108.5 42.5q82 0 131.5 -51.5t49.5 -132.5q0 -118 -103 -200l-269 -212h-94l205 157q-130 0 -217.5 71
t-127.5 196v53h65q53 0 66 21t13 81v109h-224v55h603v-55h-317v-116q0 -78 -26.5 -114t-94.5 -36h-13q21 -86 91 -148t169 -62q98 0 156 57t58 143q0 62 -29 97t-88 35q-45 0 -70.5 -27.5t-25.5 -65.5q0 -36 21.5 -58t55.5 -22q28 0 52 12z" />
    <glyph glyph-name="dvGx_R" horiz-adv-x="380" 
d="M35 223v59q32 -15 64 -15q64 0 64 72v240h-183v55h420v-55h-176v-239q0 -62 -30 -95.5t-90 -33.5q-40 0 -69 12zM453 324l31 -53l-345 -291h-88zM379 32q20 0 34 -13.5t14 -33.5t-14 -33t-34 -13t-33 13t-13 33t13 33.5t33 13.5z" />
    <glyph glyph-name="dvJx_R" horiz-adv-x="468" 
d="M488 634v-55h-508v55h508zM509 -10q20 0 34 -13.5t14 -33.5t-14 -33t-34 -13t-33 13t-13 33t13 33.5t33 13.5zM129 -100l407 347l33 -49l-350 -298h-90zM108 448h541v-54h-367q72 -42 72 -127q0 -74 -52.5 -123t-145.5 -49q-63 0 -116 23v57q58 -28 114 -28q62 0 99.5 31
t37.5 87q0 66 -48.5 97.5t-134.5 31.5v54z" />
    <glyph glyph-name="dvPHx_R" horiz-adv-x="600" 
d="M259 -53q20 0 34 -13.5t14 -33.5t-14 -33t-34 -13t-33 13t-13 33t13 33.5t33 13.5zM137 579v-184q0 -78 28 -112t87 -34q57 0 97.5 41.5t40.5 112.5v176h-253zM452 579v-149q44 50 124 50q113 0 167 -93l-46 -39q-39 80 -121 80q-52 0 -88 -32.5t-36 -81.5v-314h-62v262
l-259 -262h-81l189 197q-164 8 -164 198v184h-95v55h640v-55h-168z" />
    <glyph glyph-name="dvK_KA" horiz-adv-x="1261" 
d="M850 266v313h-438v-151q43 49 119 49q66 0 114 -34q43 24 98 24q15 0 23 -3v-54q-10 2 -21 2q-57 0 -95 -35t-38 -98q0 -55 34.5 -89.5t88.5 -34.5q46 0 80.5 32t34.5 79zM1281 579h-369v-151q43 49 119 49q80 0 130.5 -48t50.5 -128q0 -86 -56 -137t-137 -51
q-15 0 -23 3v54q10 -2 21 -2q57 0 95 35t38 98q0 55 -34.5 89.5t-88.5 34.5q-46 0 -80.5 -32t-34.5 -79v-314h-62v152q-43 -49 -119 -49q-80 0 -130.5 48t-50.5 128q0 74 46 127q-28 19 -69 19q-46 0 -80.5 -32t-34.5 -79v-314h-62v152q-43 -49 -119 -49q-80 0 -130.5 48
t-50.5 128q0 86 56 137t137 51q15 0 23 -3v-54q-10 2 -21 2q-57 0 -95 -35t-38 -98q0 -55 34.5 -89.5t88.5 -34.5q46 0 80.5 32t34.5 79v313h-370v55h1301v-55z" />
    <glyph glyph-name="dvKx_KxA" horiz-adv-x="1261" 
d="M149 10q20 0 34 -13.5t14 -33.5t-14 -33t-34 -13t-33 13t-13 33t13 33.5t33 13.5zM649 10q20 0 34 -13.5t14 -33.5t-14 -33t-34 -13t-33 13t-13 33t13 33.5t33 13.5zM850 266v313h-438v-151q43 49 119 49q66 0 114 -34q43 24 98 24q15 0 23 -3v-54q-10 2 -21 2
q-57 0 -95 -35t-38 -98q0 -55 34.5 -89.5t88.5 -34.5q46 0 80.5 32t34.5 79zM1281 579h-369v-151q43 49 119 49q80 0 130.5 -48t50.5 -128q0 -86 -56 -137t-137 -51q-15 0 -23 3v54q10 -2 21 -2q57 0 95 35t38 98q0 55 -34.5 89.5t-88.5 34.5q-46 0 -80.5 -32t-34.5 -79
v-314h-62v152q-43 -49 -119 -49q-80 0 -130.5 48t-50.5 128q0 74 46 127q-28 19 -69 19q-46 0 -80.5 -32t-34.5 -79v-314h-62v152q-43 -49 -119 -49q-80 0 -130.5 48t-50.5 128q0 86 56 137t137 51q15 0 23 -3v-54q-10 2 -21 2q-57 0 -95 -35t-38 -98q0 -55 34.5 -89.5
t88.5 -34.5q46 0 80.5 32t34.5 79v313h-370v55h1301v-55z" />
    <glyph glyph-name="dvK_KHA" horiz-adv-x="1343" 
d="M804 440v139h-392v-148q38 46 108 46q71 0 111.5 -40t42.5 -99h1q129 0 129 102zM1363 634v-55h-120v-579h-62v195q-45 -55 -126 -55q-67 0 -115 44.5t-48 114.5q0 75 47.5 119t114.5 44q30 0 53 -6v-54q-19 6 -45 6q-45 0 -76.5 -30.5t-31.5 -78.5q0 -49 30.5 -78
t80.5 -29q47 0 81.5 34t34.5 86v267h-315v-146q0 -72 -47 -111t-124 -39h-12l224 -283h-77l-220 285v46q0 39 -25 66.5t-69 27.5q-42 0 -73 -31.5t-31 -79.5v-314h-62v152q-43 -49 -119 -49q-80 0 -130.5 48t-50.5 128q0 86 56 137t137 51q15 0 23 -3v-54q-10 2 -21 2
q-57 0 -95 -35t-38 -98q0 -55 34.5 -89.5t88.5 -34.5q46 0 80.5 32t34.5 79v313h-370v55h1383z" />
    <glyph glyph-name="dvK_CA" horiz-adv-x="1097" 
d="M935 328v251h-523v-142q32 40 95 40q50 0 90 -28h240v-55q-118 0 -163.5 -38.5t-45.5 -91.5t34.5 -82t90.5 -29q86 0 134 52t48 123zM1117 634v-55h-120v-579h-62v194q-23 -40 -70.5 -66t-112.5 -27q-80 0 -133 43t-53 120q0 91 81 130h-74q-30 31 -70 31
q-44 0 -67.5 -30.5t-23.5 -80.5v-314h-62v152q-43 -49 -119 -49q-80 0 -130.5 48t-50.5 128q0 86 56 137t137 51q15 0 23 -3v-54q-10 2 -21 2q-57 0 -95 -35t-38 -98q0 -55 34.5 -89.5t88.5 -34.5q46 0 80.5 32t34.5 79v313h-370v55h1137z" />
    <glyph glyph-name="dvK_JA" horiz-adv-x="1162" 
d="M1001 418v161h-589v-150q42 48 115 48q79 0 126 -59h348zM1182 634v-55h-120v-579h-61v364h-216q74 -38 74 -127q0 -79 -53.5 -125.5t-144.5 -46.5q-64 0 -117 23v57q58 -28 115 -28q63 0 100 29.5t37 88.5q0 64 -48.5 96.5t-134.5 32.5v3q-27 58 -96 58q-41 0 -73 -32.5
t-32 -78.5v-314h-62v152q-43 -49 -119 -49q-80 0 -130.5 48t-50.5 128q0 86 56 137t137 51q15 0 23 -3v-54q-10 2 -21 2q-57 0 -95 -35t-38 -98q0 -55 34.5 -89.5t88.5 -34.5q46 0 80.5 32t34.5 79v313h-370v55h1202z" />
    <glyph glyph-name="dvK_TTA" horiz-adv-x="988" 
d="M412 579v-151q43 49 119 49q87 0 137 -57q61 33 136 33q19 0 28 -1v127h-420zM894 579v-182q-33 5 -64 5q-90 0 -147.5 -43t-57.5 -124q0 -75 50 -116.5t133 -41.5q78 0 140 37v-57q-60 -32 -141 -32q-109 0 -178 56t-69 154q0 92 62 151q-36 39 -95 39q-46 0 -80.5 -32
t-34.5 -79v-314h-62v152q-43 -49 -119 -49q-80 0 -130.5 48t-50.5 128q0 86 56 137t137 51q15 0 23 -3v-54q-10 2 -21 2q-57 0 -95 -35t-38 -98q0 -55 34.5 -89.5t88.5 -34.5q46 0 80.5 32t34.5 79v313h-370v55h1028v-55h-114z" />
    <glyph glyph-name="dvK_NNA" horiz-adv-x="1270" 
d="M873 349v230h-201v-229q0 -120 97 -120q104 0 104 119zM412 579v-151q43 49 119 49q43 0 79 -15v117h-198zM1290 634v-55h-120v-579h-62v579h-173v-230q0 -83 -42 -127.5t-124 -44.5q-81 0 -120 42.5t-39 130.5v46q-34 29 -83 29q-46 0 -80.5 -32t-34.5 -79v-314h-62v152
q-43 -49 -119 -49q-80 0 -130.5 48t-50.5 128q0 86 56 137t137 51q15 0 23 -3v-54q-10 2 -21 2q-57 0 -95 -35t-38 -98q0 -55 34.5 -89.5t88.5 -34.5q46 0 80.5 32t34.5 79v313h-370v55h1310z" />
    <glyph glyph-name="dvK_TA" horiz-adv-x="897" 
d="M917 579h-402v-193q46 52 128 52q95 0 150 -60t55 -157q0 -98 -54.5 -158.5t-141.5 -60.5q-29 0 -47 6v54q17 -5 45 -5q60 0 96.5 44.5t36.5 120.5q0 68 -37 116t-103 48q-53 0 -90.5 -33.5t-37.5 -82.5v-270h-61v386h-81q-187 0 -187 -169q0 -76 38.5 -118.5
t115.5 -42.5q14 0 24 2v-54q-12 -2 -27 -2q-99 0 -156.5 58t-57.5 157q0 116 80 168q-20 -1 -65 -1h-56v57h372v138h-474v55h937v-55z" />
    <glyph glyph-name="dvKx_TA" horiz-adv-x="1082" 
d="M149 10q20 0 34 -13.5t14 -33.5t-14 -33t-34 -13t-33 13t-13 33t13 33.5t33 13.5zM921 446v133h-509v-151q43 49 119 49q78 0 143 -61q57 30 135 30h112zM1102 634v-55h-120v-579h-61v391h-101q-187 0 -187 -167q0 -78 39 -124t115 -46q14 0 24 2v-54q-12 -2 -27 -2
q-98 0 -156 63.5t-58 161.5q0 97 57 155q-42 45 -100 45q-46 0 -80.5 -32t-34.5 -79v-314h-62v152q-43 -49 -119 -49q-80 0 -130.5 48t-50.5 128q0 86 56 137t137 51q15 0 23 -3v-54q-10 2 -21 2q-57 0 -95 -35t-38 -98q0 -55 34.5 -89.5t88.5 -34.5q46 0 80.5 32t34.5 79
v313h-370v55h1122z" />
    <glyph glyph-name="dvK_T_YA" horiz-adv-x="1472" 
d="M1311 327v252h-202q26 -39 26 -94q0 -117 -153 -164q13 -60 58.5 -99.5t107.5 -39.5q72 0 117.5 40t45.5 105zM790 446h19q104 0 149 -71q56 17 85.5 46.5t29.5 66.5q0 52 -31 91h-630v-151q43 49 119 49q86 0 135 -63q50 32 124 32zM1492 634v-55h-120v-579h-61v201
q-54 -71 -166 -71q-84 0 -146.5 52t-83.5 148q-31 61 -104 61h-21q-72 0 -114.5 -43t-42.5 -124q0 -78 39 -124t115 -46q14 0 24 2v-54q-12 -2 -27 -2q-98 0 -156 63.5t-58 161.5q0 91 50 150q-37 50 -93 50q-46 0 -80.5 -32t-34.5 -79v-314h-62v152q-43 -49 -119 -49
q-80 0 -130.5 48t-50.5 128q0 86 56 137t137 51q15 0 23 -3v-54q-10 2 -21 2q-57 0 -95 -35t-38 -98q0 -55 34.5 -89.5t88.5 -34.5q46 0 80.5 32t34.5 79v313h-370v55h1512z" />
    <glyph glyph-name="dvK_T_RA" horiz-adv-x="1045" 
d="M909 362v217h-497v-152q37 41 97 41q59 0 100 -39q47 19 108 19q126 0 192 -86zM1091 634v-55h-120v-579h-62v231l-266 -164l-35 45l284 175q-25 48 -72 77.5t-103 29.5q-65 0 -127 -33q-27 55 -84 55q-36 0 -65 -28.5t-29 -73.5v-314h-62v152q-43 -49 -119 -49
q-80 0 -130.5 48t-50.5 128q0 86 56 137t137 51q15 0 23 -3v-54q-10 2 -21 2q-57 0 -95 -35t-38 -98q0 -55 34.5 -89.5t88.5 -34.5q46 0 80.5 32t34.5 79v313h-370v55h1111z" />
    <glyph glyph-name="dvK_T_VA" horiz-adv-x="1446" 
d="M1265 319v260h-853v-153q43 49 121 49q84 0 138 -61q55 32 138 32h206q37 18 86 18q34 0 62 -7v-55q-23 8 -59 8q-57 0 -94.5 -36.5t-37.5 -94.5q0 -60 38 -97.5t92 -37.5q78 0 120.5 52t42.5 123zM1446 634v-55h-120v-579h-61v179q-48 -87 -166 -87q-77 0 -133 51
t-56 136q0 65 36 112h-126q-187 0 -187 -167q0 -78 39 -124t115 -46q14 0 24 2v-54q-12 -2 -27 -2q-98 0 -156 63.5t-58 161.5q0 96 55 154q-39 44 -96 44q-48 0 -82.5 -30.5t-34.5 -78.5v-314h-62v152q-43 -49 -119 -49q-80 0 -130.5 48t-50.5 128q0 86 56 137t137 51
q15 0 23 -3v-54q-10 2 -21 2q-57 0 -95 -35t-38 -98q0 -55 34.5 -89.5t88.5 -34.5q46 0 80.5 32t34.5 79v313h-370v55h1466z" />
    <glyph glyph-name="dvK_THA" horiz-adv-x="1210" 
d="M1049 634h181v-55h-120v-579h-61v220q-18 -38 -72 -72.5t-124 -34.5q-54 0 -95 13.5t-64 35.5t-40 50t-25 57t-17.5 57t-19 50t-28 35.5t-45.5 13.5q-47 0 -77 -31t-30 -80v-314h-62v152q-43 -49 -119 -49q-80 0 -130.5 48t-50.5 128q0 86 56 137t137 51q15 0 23 -3v-54
q-10 2 -21 2q-57 0 -95 -35t-38 -98q0 -55 34.5 -89.5t88.5 -34.5q46 0 80.5 32t34.5 79v313h-370v55h590v-55h-158v-147q37 45 107 45q65 0 98.5 -33t52.5 -91q101 26 148.5 61.5t47.5 90.5q0 36 -18.5 59t-54.5 23t-54.5 -21t-18.5 -53q0 -16 2.5 -27t6.5 -19.5t4 -9.5
h-62q-13 36 -13 63q0 48 38 83.5t97 35.5q65 0 100 -38.5t35 -93.5q0 -83 -63 -130.5t-182 -73.5q35 -137 170 -137q82 0 139 54.5t57 153.5v260z" />
    <glyph glyph-name="dvK_DA" horiz-adv-x="1027" 
d="M412 579v-151q43 49 119 49q53 0 95 -22q41 29 105 29h107v95h-426zM900 429h-165q-39 0 -66 -16.5t-27 -52.5q0 -37 30.5 -55t110.5 -22q81 -4 127.5 -34t46.5 -100q0 -67 -52.5 -108.5t-141.5 -41.5q-103 0 -182 41v63q35 -22 86 -37t96 -15q59 0 94.5 25t35.5 73
q0 40 -31.5 59t-104.5 23q-177 9 -177 127q0 31 10 52q-27 15 -63 15q-46 0 -80.5 -32t-34.5 -79v-314h-62v152q-43 -49 -119 -49q-80 0 -130.5 48t-50.5 128q0 86 56 137t137 51q15 0 23 -3v-54q-10 2 -21 2q-57 0 -95 -35t-38 -98q0 -55 34.5 -89.5t88.5 -34.5
q46 0 80.5 32t34.5 79v313h-370v55h1067v-55h-147v-150z" />
    <glyph glyph-name="dvK_NA" horiz-adv-x="772" 
d="M791 579h-369v-151q43 49 119 49q80 0 130.5 -48t50.5 -128q0 -86 -56 -137t-137 -51q-15 0 -23 3v54q10 -2 21 -2q57 0 95 35t38 98q0 55 -34.5 89.5t-88.5 34.5q-46 0 -80.5 -32t-34.5 -79v-314h-62v152q-14 -16 -30 -25l-163 -109q-16 -12 -16 -25q0 -29 60 -78
l-40 -31q-91 51 -91 107q0 35 43 64l77 52q-64 11 -102 57t-38 115q0 86 56 137t137 51q15 0 23 -3v-54q-10 2 -21 2q-57 0 -95 -35t-38 -98q0 -55 34.5 -89.5t88.5 -34.5q46 0 80.5 32t34.5 79v313h-380v55h811v-55z" />
    <glyph glyph-name="dvK_PA" horiz-adv-x="1077" 
d="M915 383v196h-253v-204q0 -78 28 -112t87 -34q57 0 97.5 41.5t40.5 112.5zM412 579v-151q43 49 119 49q36 0 69 -11v113h-188zM1097 634v-55h-120v-579h-62v245q-45 -67 -137 -68q-178 0 -178 198v29q-30 21 -73 21q-46 0 -80.5 -32t-34.5 -79v-314h-62v152
q-43 -49 -119 -49q-80 0 -130.5 48t-50.5 128q0 86 56 137t137 51q15 0 23 -3v-54q-10 2 -21 2q-57 0 -95 -35t-38 -98q0 -55 34.5 -89.5t88.5 -34.5q46 0 80.5 32t34.5 79v313h-370v55h1117z" />
    <glyph glyph-name="dvK_P_RA" horiz-adv-x="1082" 
d="M920 403v176h-253v-184q0 -78 28 -112t87 -34q57 0 97.5 41.5t40.5 112.5zM412 579v-151q43 49 119 49q42 0 74 -13v115h-193zM1102 634v-55h-120v-579h-62v262l-259 -262h-81l189 197q-164 8 -164 198v5q-33 25 -78 25q-46 0 -80.5 -32t-34.5 -79v-314h-62v152
q-43 -49 -119 -49q-80 0 -130.5 48t-50.5 128q0 86 56 137t137 51q15 0 23 -3v-54q-10 2 -21 2q-57 0 -95 -35t-38 -98q0 -55 34.5 -89.5t88.5 -34.5q46 0 80.5 32t34.5 79v313h-370v55h1122z" />
    <glyph glyph-name="dvK_PHA" horiz-adv-x="1307" 
d="M915 383v196h-253v-204q0 -77 27.5 -109.5t87.5 -32.5q58 0 98 39.5t40 110.5zM412 579v-151q43 49 119 49q36 0 69 -11v113h-188zM1327 579h-350v-148q43 49 119 49q80 0 130.5 -48t50.5 -128q0 -86 -56 -137t-137 -51q-16 0 -23 3v54q10 -2 21 -2q57 0 95 35t38 98
q0 55 -34.5 89.5t-88.5 34.5q-48 0 -81.5 -33t-33.5 -81v-314h-62v246q-44 -64 -137 -65q-90 0 -134 43.5t-44 145.5v34q-30 21 -73 21q-46 0 -80.5 -32t-34.5 -79v-314h-62v152q-43 -49 -119 -49q-80 0 -130.5 48t-50.5 128q0 86 56 137t137 51q15 0 23 -3v-54q-10 2 -21 2
q-57 0 -95 -35t-38 -98q0 -55 34.5 -89.5t88.5 -34.5q46 0 80.5 32t34.5 79v313h-370v55h1347v-55z" />
    <glyph glyph-name="dvKx_PHA" horiz-adv-x="1305" 
d="M149 10q20 0 34 -13.5t14 -33.5t-14 -33t-34 -13t-33 13t-13 33t13 33.5t33 13.5zM913 383v196h-253v-204q0 -77 27.5 -109.5t87.5 -32.5q58 0 98 39.5t40 110.5zM412 579v-151q43 49 119 49q32 0 67 -10v112h-186zM1325 579h-350v-148q43 49 119 49q80 0 130.5 -48
t50.5 -128q0 -86 -56 -137t-137 -51q-16 0 -23 3v54q10 -2 21 -2q57 0 95 35t38 98q0 55 -34.5 89.5t-88.5 34.5q-48 0 -81.5 -33t-33.5 -81v-314h-62v246q-44 -64 -137 -65q-90 0 -134 43.5t-44 145.5v35q-31 20 -71 20q-46 0 -80.5 -32t-34.5 -79v-314h-62v152
q-43 -49 -119 -49q-80 0 -130.5 48t-50.5 128q0 86 56 137t137 51q15 0 23 -3v-54q-10 2 -21 2q-57 0 -95 -35t-38 -98q0 -55 34.5 -89.5t88.5 -34.5q46 0 80.5 32t34.5 79v313h-370v55h1345v-55z" />
    <glyph glyph-name="dvKx_PHxA" horiz-adv-x="1305" 
d="M149 10q20 0 34 -13.5t14 -33.5t-14 -33t-34 -13t-33 13t-13 33t13 33.5t33 13.5zM667 57q20 0 34 -13.5t14 -33.5t-14 -33t-34 -13t-33 13t-13 33t13 33.5t33 13.5zM913 383v196h-253v-204q0 -77 27.5 -109.5t87.5 -32.5q58 0 98 39.5t40 110.5zM412 579v-151
q43 49 119 49q32 0 67 -10v112h-186zM1325 579h-350v-148q43 49 119 49q80 0 130.5 -48t50.5 -128q0 -86 -56 -137t-137 -51q-16 0 -23 3v54q10 -2 21 -2q57 0 95 35t38 98q0 55 -34.5 89.5t-88.5 34.5q-48 0 -81.5 -33t-33.5 -81v-314h-62v246q-44 -64 -137 -65
q-90 0 -134 43.5t-44 145.5v35q-31 20 -71 20q-46 0 -80.5 -32t-34.5 -79v-314h-62v152q-43 -49 -119 -49q-80 0 -130.5 48t-50.5 128q0 86 56 137t137 51q15 0 23 -3v-54q-10 2 -21 2q-57 0 -95 -35t-38 -98q0 -55 34.5 -89.5t88.5 -34.5q46 0 80.5 32t34.5 79v313h-370v55
h1345v-55z" />
    <glyph glyph-name="dvKx_BA" horiz-adv-x="1111" 
d="M149 10q20 0 34 -13.5t14 -33.5t-14 -33t-34 -13t-33 13t-13 33t13 33.5t33 13.5zM950 310v269h-538v-151q43 49 119 49q63 0 107 -29q59 43 138 43q41 0 83 -11v-55q-42 14 -80 14q-51 0 -87 -19l217 -225q41 50 41 115zM874 164l-221 225q-34 -40 -34 -103
q0 -66 42 -108.5t107 -42.5q61 0 106 29zM1131 634v-55h-120v-579h-61v173q-23 -38 -72.5 -64t-112.5 -26q-85 0 -145 56.5t-60 146.5q0 69 37 120q-32 19 -70 19q-46 0 -80.5 -32t-34.5 -79v-314h-62v152q-43 -49 -119 -49q-80 0 -130.5 48t-50.5 128q0 86 56 137t137 51
q15 0 23 -3v-54q-10 2 -21 2q-57 0 -95 -35t-38 -98q0 -55 34.5 -89.5t88.5 -34.5q46 0 80.5 32t34.5 79v313h-370v55h1151z" />
    <glyph glyph-name="dvK_MA" horiz-adv-x="1059" 
d="M897 339v240h-223v-240h223zM412 579v-151q43 49 119 49q46 0 81 -16v118h-200zM1079 634v-55h-120v-579h-62v285h-223v-140h-55l-22 50q-27 63 -27 90q0 19 12 33.5t30 18.5v57q-34 31 -85 31q-46 0 -80.5 -32t-34.5 -79v-314h-62v152q-43 -49 -119 -49q-80 0 -130.5 48
t-50.5 128q0 86 56 137t137 51q15 0 23 -3v-54q-10 2 -21 2q-57 0 -95 -35t-38 -98q0 -55 34.5 -89.5t88.5 -34.5q46 0 80.5 32t34.5 79v313h-370v55h1099z" />
    <glyph glyph-name="dvKx_MA" horiz-adv-x="1059" 
d="M149 10q20 0 34 -13.5t14 -33.5t-14 -33t-34 -13t-33 13t-13 33t13 33.5t33 13.5zM897 339v240h-223v-240h223zM412 579v-151q43 49 119 49q46 0 81 -16v118h-200zM1079 634v-55h-120v-579h-62v285h-223v-140h-55l-22 50q-27 63 -27 90q0 19 12 33.5t30 18.5v57
q-34 31 -85 31q-46 0 -80.5 -32t-34.5 -79v-314h-62v152q-43 -49 -119 -49q-80 0 -130.5 48t-50.5 128q0 86 56 137t137 51q15 0 23 -3v-54q-10 2 -21 2q-57 0 -95 -35t-38 -98q0 -55 34.5 -89.5t88.5 -34.5q46 0 80.5 32t34.5 79v313h-370v55h1099z" />
    <glyph glyph-name="dvK_YA" horiz-adv-x="1156" 
d="M1005 327v252h-202q26 -39 26 -94q0 -66 -43.5 -107.5t-112.5 -60.5q20 -68 59.5 -101.5t109.5 -33.5q69 0 116 40t47 105zM412 579v-152q38 42 103 42q94 0 139 -100q48 13 80.5 46.5t32.5 72.5q0 52 -31 91h-324zM1186 634v-55h-120v-579h-61v201q-53 -71 -171 -71
q-63 0 -107.5 21.5t-64.5 53t-36.5 69t-27 69t-32 53t-54.5 21.5q-43 0 -71.5 -28t-28.5 -75v-314h-62v152q-43 -49 -119 -49q-80 0 -130.5 48t-50.5 128q0 86 56 137t137 51q15 0 23 -3v-54q-10 2 -21 2q-57 0 -95 -35t-38 -98q0 -55 34.5 -89.5t88.5 -34.5q46 0 80.5 32
t34.5 79v313h-370v55h1206z" />
    <glyph glyph-name="dvK_LA" horiz-adv-x="1237" 
d="M1075 453v126h-663v-151q43 49 119 49q72 0 118 -37q38 26 88 26q53 0 87.5 -24.5t44.5 -70.5q22 98 136 98q40 0 70 -16zM1257 634v-55h-120v-579h-62v397q-33 20 -65 20q-52 0 -82 -32.5t-30 -100.5v-74h-61v75q0 129 -94 129q-47 0 -79 -40t-32 -113
q0 -88 45.5 -148.5t131.5 -60.5q15 0 23 2v-51q-14 -3 -32 -3q-103 0 -166.5 75t-63.5 187q0 79 38 136q-32 27 -81 27q-46 0 -80.5 -32t-34.5 -79v-314h-62v152q-43 -49 -119 -49q-80 0 -130.5 48t-50.5 128q0 86 56 137t137 51q15 0 23 -3v-54q-10 2 -21 2q-57 0 -95 -35
t-38 -98q0 -55 34.5 -89.5t88.5 -34.5q46 0 80.5 32t34.5 79v313h-370v55h1277z" />
    <glyph glyph-name="dvK_VA" horiz-adv-x="1079" 
d="M918 319v260h-506v-151q43 49 119 49q73 0 121 -39q44 26 102 26q34 0 62 -7v-55q-23 8 -59 8q-57 0 -94.5 -36.5t-37.5 -94.5q0 -60 38 -97.5t92 -37.5q78 0 120.5 52t42.5 123zM1099 634v-55h-120v-579h-61v179q-48 -87 -166 -87q-77 0 -133 51t-56 136q0 70 43 121
q-34 25 -79 25q-46 0 -80.5 -32t-34.5 -79v-314h-62v152q-43 -49 -119 -49q-80 0 -130.5 48t-50.5 128q0 86 56 137t137 51q15 0 23 -3v-54q-10 2 -21 2q-57 0 -95 -35t-38 -98q0 -55 34.5 -89.5t88.5 -34.5q46 0 80.5 32t34.5 79v313h-370v55h1119z" />
    <glyph glyph-name="dvK_V_YA" horiz-adv-x="1393" 
d="M1232 327v252h-202q26 -39 26 -94q0 -117 -153 -164q13 -60 58.5 -99.5t107.5 -39.5q72 0 117.5 40t45.5 105zM813 457v-55q-23 8 -59 8q-57 0 -94.5 -36.5t-37.5 -94.5q0 -61 42 -98t105 -37q80 0 135 53q-61 63 -74 167q79 13 121.5 46t42.5 78q0 52 -31 91h-551v-151
q43 49 119 49q71 0 119 -38q45 25 101 25q34 0 62 -7zM1413 634v-55h-120v-579h-61v201q-54 -71 -166 -71q-68 0 -122 34q-72 -72 -178 -72q-86 0 -146 50t-60 137q0 72 44 122q-32 24 -77 24q-46 0 -80.5 -32t-34.5 -79v-314h-62v152q-43 -49 -119 -49q-80 0 -130.5 48
t-50.5 128q0 86 56 137t137 51q15 0 23 -3v-54q-10 2 -21 2q-57 0 -95 -35t-38 -98q0 -55 34.5 -89.5t88.5 -34.5q46 0 80.5 32t34.5 79v313h-370v55h1433z" />
    <glyph glyph-name="dvK_SHA" horiz-adv-x="1194" 
d="M412 579v-153q41 51 112 51q38 0 68 -14q-2 16 -2 26q0 58 37.5 101.5t102.5 43.5q74 0 114.5 -50t40.5 -127q0 -100 -59.5 -156t-151.5 -56h-40l218 -245h-83l-211 243v57h95q81 0 125.5 40t44.5 115q0 58 -25 91t-68 33q-40 0 -60.5 -29t-20.5 -67q0 -49 28 -97h-58
q-33 39 -88 39q-51 0 -85 -31.5t-34 -79.5v-314h-62v152q-43 -49 -119 -49q-80 0 -130.5 48t-50.5 128q0 86 56 137t137 51q15 0 23 -3v-54q-10 2 -21 2q-57 0 -95 -35t-38 -98q0 -55 34.5 -89.5t88.5 -34.5q46 0 80.5 32t34.5 79v313h-370v55h532v-55h-100zM1010 634h182
v-55h-120v-579h-62v634z" />
    <glyph glyph-name="dvK_SS_MA" horiz-adv-x="1069" 
d="M907 339v240h-223v-240h223zM268 587q-42 0 -70 -27t-28 -64q0 -91 102 -111q94 29 94 110q0 34 -29.5 63t-68.5 29zM480 634h609v-55h-120v-579h-62v285h-223v-140h-55l-22 50q-27 63 -27 90q0 26 22 43h-280q-27 0 -59 5q-60 -16 -99.5 -49t-39.5 -82q0 -46 32 -73.5
t79 -27.5q52 0 92.5 34.5t53.5 86.5h55v-222h-60v118q-14 -28 -55.5 -48.5t-85.5 -20.5q-79 0 -127 42.5t-48 110.5q0 54 35.5 95.5t93.5 62.5q-81 47 -81 136q0 55 45.5 99t110.5 44q72 0 118 -43t46 -99q0 -78 -62 -116h256v198h-142v55z" />
    <glyph glyph-name="dvK_SS_M_YA" horiz-adv-x="1433" 
d="M1272 327v252h-202q26 -39 26 -94q0 -57 -42 -102.5t-110 -66.5q15 -59 59 -96.5t106 -37.5q72 0 117.5 40t45.5 105zM674 339h70q58 0 107 7.5t91.5 24.5t67 48.5t24.5 74.5q0 52 -31 85h-329v-240zM268 587q-42 0 -70 -27t-28 -64q0 -91 102 -111q94 29 94 110
q0 34 -29.5 63t-68.5 29zM470 634h983v-55h-120v-579h-61v201q-54 -71 -166 -71q-81 0 -140 43.5t-85 123.5q-75 -12 -159 -12h-48v-140h-55l-22 50q-27 63 -27 90q0 26 22 43h-270q-27 0 -59 5q-60 -16 -99.5 -49t-39.5 -82q0 -46 32 -73.5t79 -27.5q52 0 92.5 34.5
t53.5 86.5h55v-222h-60v118q-14 -28 -55.5 -48.5t-85.5 -20.5q-79 0 -127 42.5t-48 110.5q0 54 35.5 95.5t93.5 62.5q-81 47 -81 136q0 55 45.5 99t110.5 44q72 0 118 -43t46 -99q0 -78 -62 -116h246v198h-142v55z" />
    <glyph glyph-name="dvK_SS_YA" horiz-adv-x="1083" 
d="M922 327v252h-202q26 -42 26 -92q0 -114 -153 -156q14 -66 58 -107.5t108 -41.5q72 0 117.5 40t45.5 105zM268 587q-42 0 -70 -27t-28 -64q0 -81 96 -112q100 28 100 111q0 34 -29.5 63t-68.5 29zM500 634h603v-55h-120v-579h-61v201q-54 -71 -166 -71q-83 0 -142.5 49
t-82.5 140q-42 -7 -99 -7q-103 0 -174 20q-58 -17 -96 -49.5t-38 -80.5q0 -46 32 -73.5t79 -27.5q52 0 92.5 34.5t53.5 86.5h55v-222h-60v118q-14 -28 -55.5 -48.5t-85.5 -20.5q-79 0 -127 42.5t-48 110.5q0 54 35.5 95.5t93.5 62.5q-81 48 -81 136q0 55 45.5 99t110.5 44
q72 0 118 -43t46 -99q0 -90 -86 -129q36 -4 91 -4q251 0 251 130q0 45 -31 85h-153v55z" />
    <glyph glyph-name="dvK_SS_VA" horiz-adv-x="1056" 
d="M268 587q-42 0 -70 -27t-28 -64q0 -91 102 -111q94 29 94 110q0 34 -29.5 63t-68.5 29zM1076 634v-55h-120v-579h-61v179q-48 -87 -166 -87q-77 0 -133 51t-56 136q0 27 6 49h-224q-27 0 -59 5q-60 -16 -99.5 -49t-39.5 -82q0 -46 32 -73.5t79 -27.5q52 0 92.5 34.5
t53.5 86.5h55v-222h-60v118q-14 -28 -55.5 -48.5t-85.5 -20.5q-79 0 -127 42.5t-48 110.5q0 54 35.5 95.5t93.5 62.5q-81 47 -81 136q0 55 45.5 99t110.5 44q72 0 118 -43t46 -99q0 -78 -62 -116h203q54 83 162 83q34 0 62 -7v-55q-23 8 -59 8q-57 0 -94.5 -36.5
t-37.5 -94.5q0 -60 38 -97.5t92 -37.5q78 0 120.5 52t42.5 123v260h-388v55h569z" />
    <glyph glyph-name="dvK_SA" horiz-adv-x="1213" 
d="M818 328h234v251h-206v-150q0 -64 -28 -101zM412 579v-148q38 46 109 46q68 0 109 -38t53 -101h2q59 0 79 23t20 75v143h-372zM1233 634v-55h-120v-579h-61v271h-173q-112 0 -182 9l183 -280h-75l-185 285v27q0 47 -27.5 80t-75.5 33q-45 0 -75 -31.5t-30 -79.5v-314h-62
v152q-43 -49 -119 -49q-80 0 -130.5 48t-50.5 128q0 86 56 137t137 51q15 0 23 -3v-54q-10 2 -21 2q-57 0 -95 -35t-38 -98q0 -55 34.5 -89.5t88.5 -34.5q46 0 80.5 32t34.5 79v313h-370v55h1253z" />
    <glyph glyph-name="dvK_S_TTA" horiz-adv-x="988" 
d="M268 587q-42 0 -70 -27t-28 -64q0 -91 102 -111q94 29 94 110q0 34 -29.5 63t-68.5 29zM894 579v-182q-33 5 -64 5q-90 0 -147.5 -43t-57.5 -124q0 -75 50 -116.5t133 -41.5q78 0 140 37v-57q-60 -32 -141 -32q-109 0 -178 56t-69 154q0 51 20 93h-258q-27 0 -59 5
q-60 -16 -99.5 -49t-39.5 -82q0 -46 32 -73.5t79 -27.5q52 0 92.5 34.5t53.5 86.5h55v-222h-60v118q-14 -28 -55.5 -48.5t-85.5 -20.5q-79 0 -127 42.5t-48 110.5q0 54 35.5 95.5t93.5 62.5q-81 47 -81 136q0 55 45.5 99t110.5 44q72 0 118 -43t46 -99q0 -78 -62 -116h251
q69 72 187 72q19 0 28 -1v127h-337v55h513v-55h-114z" />
    <glyph glyph-name="dvK_S_DDA" horiz-adv-x="1027" 
d="M268 587q-42 0 -70 -27t-28 -64q0 -91 102 -111q94 29 94 110q0 34 -29.5 63t-68.5 29zM900 429h-165q-39 0 -66 -16.5t-27 -52.5q0 -37 30.5 -55t110.5 -22q81 -4 127.5 -34t46.5 -100q0 -67 -52.5 -108.5t-141.5 -41.5q-103 0 -182 41v63q35 -22 86 -37t96 -15
q59 0 94.5 25t35.5 73q0 40 -31.5 59t-104.5 23q-154 7 -174 97h-261q-27 0 -59 5q-60 -16 -99.5 -49t-39.5 -82q0 -46 32 -73.5t79 -27.5q52 0 92.5 34.5t53.5 86.5h55v-222h-60v118q-14 -28 -55.5 -48.5t-85.5 -20.5q-79 0 -127 42.5t-48 110.5q0 54 35.5 95.5t93.5 62.5
q-81 47 -81 136q0 55 45.5 99t110.5 44q72 0 118 -43t46 -99q0 -78 -62 -116h216q7 50 47.5 76.5t101.5 26.5h107v95h-348v55h557v-55h-147v-150z" />
    <glyph glyph-name="dvK_S_TA" horiz-adv-x="1072" 
d="M268 587q-42 0 -70 -27t-28 -64q0 -91 102 -111q94 29 94 110q0 34 -29.5 63t-68.5 29zM520 634h572v-55h-120v-579h-61v391h-101q-187 0 -187 -167q0 -78 39 -124t115 -46q14 0 24 2v-54q-12 -2 -27 -2q-98 0 -156 63.5t-58 161.5q0 58 21 103h-259q-27 0 -59 5
q-60 -16 -99.5 -49t-39.5 -82q0 -46 32 -73.5t79 -27.5q52 0 92.5 34.5t53.5 86.5h55v-222h-60v118q-14 -28 -55.5 -48.5t-85.5 -20.5q-79 0 -127 42.5t-48 110.5q0 54 35.5 95.5t93.5 62.5q-81 47 -81 136q0 55 45.5 99t110.5 44q72 0 118 -43t46 -99q0 -78 -62 -116h251
q63 65 182 65h112v133h-391v55z" />
    <glyph glyph-name="dvK_S_P_RA" horiz-adv-x="1512" 
d="M1350 403v176h-253v-184q0 -78 28 -112t87 -34q57 0 97.5 41.5t40.5 112.5zM818 328h223q-6 30 -6 67v184h-189v-150q0 -64 -28 -101zM412 579v-148q38 46 109 46q68 0 109 -38t53 -101h2q59 0 79 23t20 75v143h-372zM1532 634v-55h-120v-579h-62v262l-259 -262h-81
l189 197q-99 5 -138 74h-182q-112 0 -182 9l183 -280h-75l-185 285v27q0 47 -27.5 80t-75.5 33q-45 0 -75 -31.5t-30 -79.5v-314h-62v152q-43 -49 -119 -49q-80 0 -130.5 48t-50.5 128q0 86 56 137t137 51q15 0 23 -3v-54q-10 2 -21 2q-57 0 -95 -35t-38 -98
q0 -55 34.5 -89.5t88.5 -34.5q46 0 80.5 32t34.5 79v313h-370v55h1552z" />
    <glyph glyph-name="dvK_S_P_LA" horiz-adv-x="2019" 
d="M1857 453v126h-755v-204q0 -78 28 -112t87 -34q85 0 139 79q11 71 55 114.5t108 43.5q53 0 87.5 -24.5t44.5 -70.5q22 98 136 98q40 0 70 -16zM818 328h225q-3 21 -3 47v204h-194v-150q0 -64 -28 -101zM412 579v-148q38 46 109 46q68 0 109 -38t53 -101h2q59 0 79 23
t20 75v143h-372zM2039 634v-55h-120v-579h-62v397q-32 20 -65 20q-52 0 -82 -32.5t-30 -100.5v-74h-61v75q0 129 -94 129q-47 0 -79 -40t-32 -113q0 -88 45.5 -148.5t131.5 -60.5q15 0 23 2v-51q-14 -3 -32 -3q-95 0 -157 64.5t-71 164.5q-59 -51 -136 -52q-124 0 -161 94
h-178q-112 0 -182 9l183 -280h-75l-185 285v27q0 47 -27.5 80t-75.5 33q-45 0 -75 -31.5t-30 -79.5v-314h-62v152q-43 -49 -119 -49q-80 0 -130.5 48t-50.5 128q0 86 56 137t137 51q15 0 23 -3v-54q-10 2 -21 2q-57 0 -95 -35t-38 -98q0 -55 34.5 -89.5t88.5 -34.5
q46 0 80.5 32t34.5 79v313h-370v55h2059z" />
    <glyph glyph-name="dvKH_KHA" horiz-adv-x="1333" 
d="M1171 437v142h-345v-116q0 -78 -26.5 -114t-94.5 -36h-13q21 -86 91 -148t169 -62q100 0 161 57t61 143q0 60 -32.5 96t-92.5 36q-45 0 -70.5 -27.5t-25.5 -65.5q0 -36 21.5 -58t55.5 -22q28 0 52 12v-52q-26 -12 -54 -12q-57 0 -96.5 36t-39.5 94q0 62 44.5 104.5
t108.5 42.5q79 0 126 -50zM665 368h20q53 0 66 21t13 81v109h-488v-116q0 -78 -26.5 -114t-94.5 -36h-13q21 -86 91 -148t169 -62q100 0 157 55t57 141q0 60 -29.5 98t-87.5 38q-45 0 -70.5 -27.5t-25.5 -65.5q0 -36 21.5 -58t55.5 -22q28 0 52 12v-52q-26 -12 -54 -12
q-57 0 -96.5 36t-39.5 94q0 62 44.5 104.5t108.5 42.5q59 0 105.5 -29t64.5 -90zM1353 634v-55h-120v-579h-62v153q-71 -105 -221 -105q-95 0 -169.5 47t-119.5 124q-26 -75 -93 -123t-168 -48q-124 0 -211.5 77t-118.5 190v53h65q53 0 66 21t13 81v109h-234v55h1373z" />
    <glyph glyph-name="dvKH_TA" horiz-adv-x="1124" 
d="M963 446v133h-687v-116q0 -78 -26.5 -114t-94.5 -36h-13q21 -86 91 -148t169 -62q100 0 157 55t57 141q0 60 -29.5 98t-87.5 38q-45 0 -70.5 -27.5t-25.5 -65.5q0 -36 21.5 -58t55.5 -22q28 0 52 12v-52q-26 -12 -54 -12q-57 0 -96.5 36t-39.5 94q0 62 44.5 104.5
t108.5 42.5q57 0 103 -27.5t65 -85.5q62 72 188 72h112zM1144 634v-55h-120v-579h-61v391h-101q-187 0 -187 -167q0 -78 39 -124t115 -46q14 0 24 2v-54q-12 -2 -27 -2q-77 0 -130 40t-73 108q-76 -100 -223 -100q-124 0 -211.5 77t-118.5 190v53h65q53 0 66 21t13 81v109
h-234v55h1164z" />
    <glyph glyph-name="dvKHx_TA" horiz-adv-x="1124" 
d="M79 50q20 0 34 -13.5t14 -33.5t-14 -33t-34 -13t-33 13t-13 33t13 33.5t33 13.5zM963 446v133h-687v-116q0 -78 -26.5 -114t-94.5 -36h-13q21 -86 91 -148t169 -62q100 0 157 55t57 141q0 60 -29.5 98t-87.5 38q-45 0 -70.5 -27.5t-25.5 -65.5q0 -36 21.5 -58t55.5 -22
q28 0 52 12v-52q-26 -12 -54 -12q-57 0 -96.5 36t-39.5 94q0 62 44.5 104.5t108.5 42.5q57 0 103 -27.5t65 -85.5q62 72 188 72h112zM1144 634v-55h-120v-579h-61v391h-101q-187 0 -187 -167q0 -78 39 -124t115 -46q14 0 24 2v-54q-12 -2 -27 -2q-77 0 -130 40t-73 108
q-76 -100 -223 -100q-124 0 -211.5 77t-118.5 190v53h65q53 0 66 21t13 81v109h-234v55h1164z" />
    <glyph glyph-name="dvKH_NA" horiz-adv-x="783" 
d="M621 437v142h-345v-116q0 -78 -26.5 -114t-94.5 -36h-13q21 -86 91 -148t169 -62q100 0 161 57t61 143q0 60 -32.5 96t-92.5 36q-45 0 -70.5 -27.5t-25.5 -65.5q0 -36 21.5 -58t55.5 -22q28 0 52 12v-52q-26 -12 -54 -12q-57 0 -96.5 36t-39.5 94q0 62 44.5 104.5
t108.5 42.5q79 0 126 -50zM803 634v-55h-120v-579h-62v153q-39 -57 -104 -84l-277 -121q-23 -10 -23 -29q0 -36 39 -87l-49 -15q-61 55 -61 108q0 44 58 67l138 61q-102 18 -173.5 91t-98.5 171v53h65q53 0 66 21t13 81v109h-234v55h823z" />
    <glyph glyph-name="dvKH_MA" horiz-adv-x="1119" 
d="M957 339v240h-223v-240h223zM532 274v-52q-26 -12 -54 -12q-57 0 -96.5 36t-39.5 94q0 62 44.5 104.5t108.5 42.5q66 0 115.5 -37t60.5 -113h1v242h-396v-116q0 -78 -26.5 -114t-94.5 -36h-13q21 -86 91 -148t169 -62q100 0 157 55t57 141q0 60 -29.5 98t-87.5 38
q-45 0 -70.5 -27.5t-25.5 -65.5q0 -36 21.5 -58t55.5 -22q28 0 52 12zM1139 634v-55h-120v-579h-62v285h-223v-140h-55l-22 50l-3 6q-29 -68 -94 -110.5t-160 -42.5q-124 0 -211.5 77t-118.5 190v53h65q53 0 66 21t13 81v109h-234v55h1159z" />
    <glyph glyph-name="dvKHx_MA" horiz-adv-x="1119" 
d="M79 50q20 0 34 -13.5t14 -33.5t-14 -33t-34 -13t-33 13t-13 33t13 33.5t33 13.5zM957 339v240h-223v-240h223zM532 274v-52q-26 -12 -54 -12q-57 0 -96.5 36t-39.5 94q0 62 44.5 104.5t108.5 42.5q66 0 115.5 -37t60.5 -113h1v242h-396v-116q0 -78 -26.5 -114t-94.5 -36
h-13q21 -86 91 -148t169 -62q100 0 157 55t57 141q0 60 -29.5 98t-87.5 38q-45 0 -70.5 -27.5t-25.5 -65.5q0 -36 21.5 -58t55.5 -22q28 0 52 12zM1139 634v-55h-120v-579h-62v285h-223v-140h-55l-22 50l-3 6q-29 -68 -94 -110.5t-160 -42.5q-124 0 -211.5 77t-118.5 190v53
h65q53 0 66 21t13 81v109h-234v55h1159z" />
    <glyph glyph-name="dvKH_YA" horiz-adv-x="1173" 
d="M1012 327v252h-202q26 -39 26 -94q0 -117 -153 -164q13 -60 58.5 -99.5t107.5 -39.5q72 0 117.5 40t45.5 105zM155 313h-13q21 -86 91 -148t169 -62q100 0 157 55t57 141q0 60 -29.5 98t-87.5 38q-45 0 -70.5 -27.5t-25.5 -65.5q0 -36 21.5 -58t55.5 -22q28 0 52 12v-52
q-26 -12 -54 -12q-57 0 -96.5 36t-39.5 94q0 62 44.5 104.5t108.5 42.5q57 0 102.5 -27t64.5 -84q112 35 112 112q0 52 -31 91h-467v-116q0 -78 -26.5 -114t-94.5 -36zM1193 634v-55h-120v-579h-61v201q-54 -71 -166 -71q-118 0 -184 93q-24 -76 -91.5 -125.5t-170.5 -49.5
q-124 0 -211.5 77t-118.5 190v53h65q53 0 66 21t13 81v109h-234v55h1213z" />
    <glyph glyph-name="dvKHx_YA" horiz-adv-x="1173" 
d="M79 50q20 0 34 -13.5t14 -33.5t-14 -33t-34 -13t-33 13t-13 33t13 33.5t33 13.5zM1012 327v252h-202q26 -39 26 -94q0 -117 -153 -164q13 -60 58.5 -99.5t107.5 -39.5q72 0 117.5 40t45.5 105zM155 313h-13q21 -86 91 -148t169 -62q100 0 157 55t57 141q0 60 -29.5 98
t-87.5 38q-45 0 -70.5 -27.5t-25.5 -65.5q0 -36 21.5 -58t55.5 -22q28 0 52 12v-52q-26 -12 -54 -12q-57 0 -96.5 36t-39.5 94q0 62 44.5 104.5t108.5 42.5q57 0 102.5 -27t64.5 -84q112 35 112 112q0 52 -31 91h-467v-116q0 -78 -26.5 -114t-94.5 -36zM1193 634v-55h-120
v-579h-61v201q-54 -71 -166 -71q-118 0 -184 93q-24 -76 -91.5 -125.5t-170.5 -49.5q-124 0 -211.5 77t-118.5 190v53h65q53 0 66 21t13 81v109h-234v55h1213z" />
    <glyph glyph-name="dvKH_VA" horiz-adv-x="1133" 
d="M972 319v260h-696v-116q0 -78 -26.5 -114t-94.5 -36h-13q21 -86 91 -148t169 -62q100 0 157 55t57 141q0 60 -29.5 98t-87.5 38q-45 0 -70.5 -27.5t-25.5 -65.5q0 -36 21.5 -58t55.5 -22q28 0 52 12v-52q-26 -12 -54 -12q-57 0 -96.5 36t-39.5 94q0 62 44.5 104.5
t108.5 42.5q52 0 95 -23t65 -70q55 70 153 70q34 0 62 -7v-55q-23 8 -59 8q-57 0 -94.5 -36.5t-37.5 -94.5q0 -60 38 -97.5t92 -37.5q78 0 120.5 52t42.5 123zM1153 634v-55h-120v-579h-61v179q-48 -87 -166 -87q-50 0 -93.5 23t-68.5 64q-33 -59 -95 -95t-149 -36
q-124 0 -211.5 77t-118.5 190v53h65q53 0 66 21t13 81v109h-234v55h1173z" />
    <glyph glyph-name="dvKHx_VA" horiz-adv-x="1133" 
d="M79 50q20 0 34 -13.5t14 -33.5t-14 -33t-34 -13t-33 13t-13 33t13 33.5t33 13.5zM972 319v260h-696v-116q0 -78 -26.5 -114t-94.5 -36h-13q21 -86 91 -148t169 -62q100 0 157 55t57 141q0 60 -29.5 98t-87.5 38q-45 0 -70.5 -27.5t-25.5 -65.5q0 -36 21.5 -58t55.5 -22
q28 0 52 12v-52q-26 -12 -54 -12q-57 0 -96.5 36t-39.5 94q0 62 44.5 104.5t108.5 42.5q52 0 95 -23t65 -70q55 70 153 70q34 0 62 -7v-55q-23 8 -59 8q-57 0 -94.5 -36.5t-37.5 -94.5q0 -60 38 -97.5t92 -37.5q78 0 120.5 52t42.5 123zM1153 634v-55h-120v-579h-61v179
q-48 -87 -166 -87q-50 0 -93.5 23t-68.5 64q-33 -59 -95 -95t-149 -36q-124 0 -211.5 77t-118.5 190v53h65q53 0 66 21t13 81v109h-234v55h1173z" />
    <glyph glyph-name="dvKH_SHA" horiz-adv-x="1254" 
d="M750 443h-61q-12 27 -12 61q0 54 36.5 92t98.5 38q71 0 113 -49t42 -118q0 -97 -64 -152t-151 -55h-47l229 -260h-83l-189 221q-25 -76 -92.5 -124.5t-169.5 -48.5q-124 0 -211.5 77t-118.5 190v53h65q53 0 66 21t13 81v109h-234v55h611v-55h-315v-116q0 -78 -26.5 -114
t-94.5 -36h-13q21 -86 91 -148t169 -62q100 0 157 55t57 141q0 60 -29.5 98t-87.5 38q-45 0 -70.5 -27.5t-25.5 -65.5q0 -36 21.5 -58t55.5 -22q28 0 52 12v-52q-26 -12 -54 -12q-57 0 -96.5 36t-39.5 94q0 62 44.5 104.5t108.5 42.5q71 0 122 -42t57 -130h51q85 0 132.5 40
t47.5 110q0 58 -25 86t-68 28q-38 0 -57 -23t-19 -57q0 -31 14 -56zM1092 634h182v-55h-120v-579h-62v634z" />
    <glyph glyph-name="dvKHx_SHA" horiz-adv-x="1253" 
d="M79 50q20 0 34 -13.5t14 -33.5t-14 -33t-34 -13t-33 13t-13 33t13 33.5t33 13.5zM750 443h-61q-12 27 -12 61q0 54 36.5 92t98.5 38q71 0 113 -49t42 -118q0 -97 -64 -152t-151 -55h-47l229 -260h-83l-189 221q-25 -76 -92.5 -124.5t-169.5 -48.5q-124 0 -211.5 77
t-118.5 190v53h65q53 0 66 21t13 81v109h-234v55h611v-55h-315v-116q0 -78 -26.5 -114t-94.5 -36h-13q21 -86 91 -148t169 -62q100 0 157 55t57 141q0 60 -29.5 98t-87.5 38q-45 0 -70.5 -27.5t-25.5 -65.5q0 -36 21.5 -58t55.5 -22q28 0 52 12v-52q-26 -12 -54 -12
q-57 0 -96.5 36t-39.5 94q0 62 44.5 104.5t108.5 42.5q71 0 122 -42t57 -130h51q85 0 132.5 40t47.5 110q0 58 -25 86t-68 28q-38 0 -57 -23t-19 -57q0 -31 14 -56zM1092 634h182v-55h-120v-579h-62v634z" />
    <glyph glyph-name="dvKHx_SA" horiz-adv-x="1213" 
d="M79 50q20 0 34 -13.5t14 -33.5t-14 -33t-34 -13t-33 13t-13 33t13 33.5t33 13.5zM818 328h234v251h-206v-150q0 -64 -28 -101zM155 313h-13q21 -86 91 -148t169 -62q100 0 157 55t57 141q0 60 -29.5 98t-87.5 38q-45 0 -70.5 -27.5t-25.5 -65.5q0 -36 21.5 -58t55.5 -22
q28 0 52 12v-52q-26 -12 -54 -12q-57 0 -96.5 36t-39.5 94q0 62 44.5 104.5t108.5 42.5q67 0 116 -36.5t60 -112.5h14q59 0 79 23t20 75v143h-508v-116q0 -78 -26.5 -114t-94.5 -36zM1233 634v-55h-120v-579h-61v271h-173q-112 0 -182 9l183 -280h-75l-143 221
q-25 -76 -92.5 -124.5t-169.5 -48.5q-124 0 -211.5 77t-118.5 190v53h65q53 0 66 21t13 81v109h-234v55h1253z" />
    <glyph glyph-name="dvG_GA" horiz-adv-x="871" 
d="M891 634v-55h-120v-579h-61v579h-191v-239q0 -62 -30 -95.5t-90 -33.5q-40 0 -69 12v59q32 -15 64 -15q64 0 64 72v240h-239v-239q0 -62 -30 -95.5t-90 -33.5q-40 0 -69 12v59q32 -15 64 -15q64 0 64 72v240h-178v55h911z" />
    <glyph glyph-name="dvG_GHA" horiz-adv-x="923" 
d="M762 327v252h-271q-65 -30 -65 -96q0 -84 135 -84h51v-55h-62q-60 0 -94 -25.5t-34 -73.5q0 -47 38 -70t90 -23q88 0 150 53.5t62 121.5zM943 634v-55h-120v-579h-61v198q-32 -41 -88 -69.5t-127 -28.5q-85 0 -136 40t-51 108q0 97 106 122q-39 6 -70.5 35t-31.5 79
q0 59 46 95h-191v-239q0 -62 -30 -95.5t-90 -33.5q-40 0 -69 12v59q32 -15 64 -15q64 0 64 72v240h-178v55h963z" />
    <glyph glyph-name="dvG_JA" horiz-adv-x="958" 
d="M978 634v-55h-120v-579h-61v394h-217q75 -45 75 -147q0 -80 -54 -131t-144 -51q-64 0 -117 23v57q58 -28 115 -28q61 0 99 34t38 94q0 74 -49 111.5t-134 37.5v54h388v131h-578v-239q0 -62 -30 -95.5t-90 -33.5q-40 0 -69 12v59q32 -15 64 -15q64 0 64 72v240h-178v55
h998z" />
    <glyph glyph-name="dvG_NNA" horiz-adv-x="1040" 
d="M643 349v230h-201v-229q0 -120 97 -120q104 0 104 119zM1060 634v-55h-120v-579h-62v579h-173v-230q0 -83 -42 -127.5t-124 -44.5q-81 0 -120 42.5t-39 130.5v229h-161v-239q0 -62 -30 -95.5t-90 -33.5q-40 0 -69 12v59q32 -15 64 -15q64 0 64 72v240h-178v55h1080z" />
    <glyph glyph-name="dvG_DA" horiz-adv-x="842" 
d="M740 415h-167q-72 0 -113.5 -37.5t-41.5 -103.5q0 -70 37.5 -109.5t100.5 -39.5t100.5 35t37.5 87h58v-257h-61v135q-44 -52 -136 -52t-148.5 57t-56.5 141q0 87 57.5 142.5t158.5 55.5h113v110h-460v-239q0 -62 -30 -95.5t-90 -33.5q-40 0 -69 12v59q32 -15 64 -15
q64 0 64 72v240h-178v55h882v-55h-122v-164z" />
    <glyph glyph-name="dvG_DHA" horiz-adv-x="902" 
d="M922 634v-55h-120v-579h-61v163q-24 -41 -75 -70.5t-121 -29.5q-96 0 -150.5 45t-54.5 112q0 55 33.5 89t85.5 41q-53 7 -85 38t-32 86q0 70 66 105h-189v-239q0 -62 -30 -95.5t-90 -33.5q-40 0 -69 12v59q32 -15 64 -15q64 0 64 72v240h-178v55h576v-55
q-71 0 -111.5 -30.5t-40.5 -76.5q0 -49 42.5 -72.5t106.5 -23.5h53v-53h-62q-65 0 -103 -28.5t-38 -77.5q0 -44 38 -72.5t104 -28.5q88 0 142 56t54 117v345h181z" />
    <glyph glyph-name="dvG_DH_YA" horiz-adv-x="1303" 
d="M1142 327v252h-202q26 -39 26 -94q0 -117 -153 -164q13 -60 58.5 -99.5t107.5 -39.5q72 0 117.5 40t45.5 105zM740 634h583v-55h-120v-579h-61v201q-54 -71 -166 -71q-81 0 -140 47q-106 -114 -251 -114q-96 0 -150.5 45t-54.5 112q0 55 33.5 89t85.5 41q-53 7 -85 38
t-32 86q0 70 66 105h-229v-239q0 -62 -30 -95.5t-90 -33.5q-40 0 -69 12v59q32 -15 64 -15q64 0 64 72v240h-178v55h616v-55q-71 0 -111.5 -30.5t-40.5 -76.5q0 -49 42.5 -72.5t106.5 -23.5h53v-53h-62q-65 0 -103 -28.5t-38 -77.5q0 -44 38 -72.5t104 -28.5q125 0 212 100
q-45 59 -57 148q79 13 121.5 46t42.5 78q0 52 -31 91h-133v55z" />
    <glyph glyph-name="dvG_DH_VA" horiz-adv-x="1296" 
d="M1316 634v-55h-120v-579h-61v179q-48 -87 -166 -87q-93 0 -149 68q-103 -97 -235 -97q-96 0 -150.5 45t-54.5 112q0 55 33.5 89t85.5 41q-53 7 -85 38t-32 86q0 70 66 105h-229v-239q0 -62 -30 -95.5t-90 -33.5q-40 0 -69 12v59q32 -15 64 -15q64 0 64 72v240h-178v55
h616v-55q-71 0 -111.5 -30.5t-40.5 -76.5q0 -49 42.5 -72.5t106.5 -23.5h53v-53h-62q-65 0 -103 -28.5t-38 -77.5q0 -44 38 -72.5t104 -28.5q120 0 207 94q-12 32 -12 69q0 80 54 132.5t137 52.5q34 0 62 -7v-55q-23 8 -59 8q-57 0 -94.5 -36.5t-37.5 -94.5q0 -60 38 -97.5
t92 -37.5q78 0 120.5 52t42.5 123v260h-355v55h536z" />
    <glyph glyph-name="dvG_NA" horiz-adv-x="581" 
d="M-20 634h621v-55h-120v-579h-61v175l-199 -118q-18 -11 -18 -27q0 -31 58 -77l-42 -30q-32 19 -60 47.5t-28 59.5q0 36 45 63l244 148v338h-191v-239q0 -62 -30 -95.5t-90 -33.5q-40 0 -69 12v59q32 -15 64 -15q64 0 64 72v240h-188v55z" />
    <glyph glyph-name="dvG_N_YA" horiz-adv-x="1143" 
d="M982 327v252h-202q26 -39 26 -94q0 -117 -153 -164q13 -60 58.5 -99.5t107.5 -39.5q72 0 117.5 40t45.5 105zM1163 634v-55h-120v-579h-61v201q-54 -71 -166 -71q-84 0 -146.5 51.5t-83.5 147.5q-24 33 -98 33h-58q-32 0 -32 -37q0 -35 14 -75h-53q-27 52 -27 97
q0 69 81 69h82q83 0 137 -40q112 35 112 112q0 52 -31 91h-494v-239q0 -62 -30 -95.5t-90 -33.5q-40 0 -69 12v59q32 -15 64 -15q64 0 64 72v240h-178v55h1183z" />
    <glyph glyph-name="dvG_BA" horiz-adv-x="881" 
d="M644 164l-221 225q-34 -40 -34 -103q0 -66 42 -108.5t107 -42.5q61 0 106 29zM901 634v-55h-120v-579h-61v173q-23 -38 -72.5 -64t-112.5 -26q-85 0 -145 56.5t-60 146.5q0 91 61.5 148t154.5 57q41 0 83 -11v-55q-42 14 -80 14q-51 0 -87 -19l217 -225q41 50 41 115v269
h-501v-239q0 -62 -30 -95.5t-90 -33.5q-40 0 -69 12v59q32 -15 64 -15q64 0 64 72v240h-178v55h921z" />
    <glyph glyph-name="dvG_BHA" horiz-adv-x="825" 
d="M663 634h182v-55h-120v-579h-62v285h-208v-140h-55l-22 50q-27 63 -27 90q0 19 12 33.5t30 18.5v172q0 37 -11 53.5t-44 16.5h-119v-239q0 -62 -30 -95.5t-90 -33.5q-40 0 -69 12v59q32 -15 64 -15q64 0 64 72v240h-178v55h366q62 0 85.5 -26t23.5 -83v-186h208v295z" />
    <glyph glyph-name="dvG_BH_YA" horiz-adv-x="1203" 
d="M1042 327v252h-202q26 -39 26 -94q0 -68 -42.5 -111t-110.5 -63q13 -59 58 -94t108 -35q72 0 117.5 40t45.5 105zM610 634h613v-55h-120v-579h-61v201q-54 -71 -166 -71q-82 0 -140.5 42.5t-83.5 124.5q-66 -12 -154 -12h-43v-140h-55l-22 50q-27 63 -27 90q0 19 12 33.5
t30 18.5v172q0 37 -11 53.5t-44 16.5h-119v-239q0 -62 -30 -95.5t-90 -33.5q-40 0 -69 12v59q32 -15 64 -15q64 0 64 72v240h-178v55h366q62 0 85.5 -26t23.5 -83v-186h40q309 0 309 149q0 52 -31 91h-163v55z" />
    <glyph glyph-name="dvG_MA" horiz-adv-x="849" 
d="M687 339v240h-223v-240h223zM869 634v-55h-120v-579h-62v285h-223v-140h-55l-22 50q-27 63 -27 90q0 19 12 33.5t30 18.5v242h-183v-239q0 -62 -30 -95.5t-90 -33.5q-40 0 -69 12v59q32 -15 64 -15q64 0 64 72v240h-178v55h889z" />
    <glyph glyph-name="dvG_YA" horiz-adv-x="923" 
d="M762 327v252h-202q26 -39 26 -94q0 -117 -153 -164q13 -60 58.5 -99.5t107.5 -39.5q72 0 117.5 40t45.5 105zM943 634v-55h-120v-579h-61v201q-54 -71 -166 -71q-92 0 -156.5 61t-79.5 173q79 13 121.5 46t42.5 78q0 52 -31 91h-274v-239q0 -62 -30 -95.5t-90 -33.5
q-40 0 -69 12v59q32 -15 64 -15q64 0 64 72v240h-178v55h963z" />
    <glyph glyph-name="dvG_R_YA" horiz-adv-x="963" 
d="M802 327v252h-202q26 -39 26 -94q0 -117 -153 -164q13 -60 58.5 -99.5t107.5 -39.5q72 0 117.5 40t45.5 105zM983 634v-55h-120v-579h-61v201q-54 -71 -166 -71q-126 0 -193 106l-304 -256h-88l365 313q-12 36 -16 71q79 13 121.5 46t42.5 78q0 52 -31 91h-309v-239
q0 -62 -30 -95.5t-90 -33.5q-40 0 -69 12v59q32 -15 64 -15q64 0 64 72v240h-183v55h1003z" />
    <glyph glyph-name="dvG_LA" horiz-adv-x="1017" 
d="M1037 634v-55h-120v-579h-62v397q-33 20 -65 20q-52 0 -82 -32.5t-30 -100.5v-74h-61v75q0 129 -94 129q-47 0 -79 -40t-32 -113q0 -88 45.5 -148.5t131.5 -60.5q15 0 23 2v-51q-14 -3 -32 -3q-103 0 -166.5 75t-63.5 187q0 89 46 146.5t121 57.5q53 0 87.5 -24.5
t44.5 -70.5q22 98 136 98q40 0 70 -16v126h-636v-239q0 -62 -30 -95.5t-90 -33.5q-40 0 -69 12v59q32 -15 64 -15q64 0 64 72v240h-178v55h1057z" />
    <glyph glyph-name="dvG_VA" horiz-adv-x="866" 
d="M886 634v-55h-120v-579h-61v179q-48 -87 -166 -87q-77 0 -133 51t-56 136q0 80 54 132.5t137 52.5q34 0 62 -7v-55q-23 8 -59 8q-57 0 -94.5 -36.5t-37.5 -94.5q0 -60 38 -97.5t92 -37.5q78 0 120.5 52t42.5 123v260h-486v-239q0 -62 -30 -95.5t-90 -33.5q-40 0 -69 12
v59q32 -15 64 -15q64 0 64 72v240h-178v55h906z" />
    <glyph glyph-name="dvG_SA" horiz-adv-x="943" 
d="M548 328h234v251h-206v-150q0 -64 -28 -101zM963 634v-55h-120v-579h-61v271h-173q-112 0 -182 9l183 -280h-75l-185 285v53h65q59 0 79 23t20 75v143h-295v-239q0 -62 -30 -95.5t-90 -33.5q-40 0 -69 12v59q32 -15 64 -15q64 0 64 72v240h-178v55h983z" />
    <glyph glyph-name="dvGH_NA" horiz-adv-x="648" 
d="M487 327v252h-270q-66 -31 -66 -92q0 -45 38.5 -66.5t96.5 -21.5h51v-55h-62q-60 0 -94 -25.5t-34 -73.5q0 -47 38 -70t90 -23q88 0 150 53.5t62 121.5zM668 634v-55h-120v-579h-61v198q-32 -42 -82 -67l-174 -105q-23 -14 -23 -36q0 -34 52 -79l-43 -29q-30 16 -56.5 47
t-26.5 63q0 35 42 63l81 45q-79 4 -125.5 44t-46.5 104q0 50 30 82t76 40q-38 6 -70 36t-32 78q0 59 46 95h-155v55h688z" />
    <glyph glyph-name="dvGH_MA" horiz-adv-x="909" 
d="M747 339v240h-223v-240h223zM332 344h-62q-60 0 -94 -25.5t-34 -73.5q0 -47 38 -70t90 -23q47 0 92 18t74 51q-16 39 -16 64q0 19 12 33.5t30 18.5v242h-251q-65 -30 -65 -96q0 -84 135 -84h51v-55zM929 634v-55h-120v-579h-62v285h-223v-140h-55l-12 27
q-77 -72 -190 -72q-85 0 -136 40t-51 108q0 97 106 122q-39 6 -70.5 35t-31.5 79q0 59 46 95h-150v55h949z" />
    <glyph glyph-name="dvGH_YA" horiz-adv-x="973" 
d="M812 327v252h-202q26 -39 26 -94q0 -117 -153 -164q13 -60 58.5 -99.5t107.5 -39.5q72 0 117.5 40t45.5 105zM332 344h-62q-60 0 -94 -25.5t-34 -73.5q0 -47 38 -70t90 -23q106 0 183 84q-33 55 -43 128q79 13 121.5 46t42.5 78q0 52 -31 91h-332q-65 -30 -65 -96
q0 -84 135 -84h51v-55zM993 634v-55h-120v-579h-61v201q-54 -71 -166 -71q-98 0 -163 67q-87 -97 -216 -97q-85 0 -136 40t-51 108q0 97 106 122q-39 6 -70.5 35t-31.5 79q0 59 46 95h-150v55h1013z" />
    <glyph glyph-name="dvC_CA" horiz-adv-x="987" 
d="M1007 634v-55h-120v-579h-62v194q-23 -40 -70.5 -66t-112.5 -27q-55 0 -99.5 21.5t-66.5 61.5q-74 -83 -191 -83q-82 0 -135.5 43t-53.5 120q0 91 81 130h-147v55h337v-55q-118 0 -163.5 -38.5t-45.5 -91.5q0 -50 36.5 -80.5t93.5 -30.5q52 0 97 26t72 62q-1 8 -1 23
q0 91 81 130h-117v55h307v-55q-118 0 -163.5 -38.5t-45.5 -91.5t34.5 -82t90.5 -29q86 0 134 52t48 123v251h-845v55h1027z" />
    <glyph glyph-name="dvC_CHA" horiz-adv-x="1019" 
d="M826 473v106h-210q-69 -32 -69 -107q0 -45 32 -71.5t76 -26.5h28v-53h-38q-55 0 -86.5 -26.5t-31.5 -69.5q0 -53 46.5 -83.5t116.5 -30.5q91 0 149 52t58 144q0 53 -30 85t-91 32q-26 0 -42 -7v53q16 6 51 6q21 0 41 -3zM1039 579h-157v-125q77 -41 77 -148
q0 -106 -76.5 -176.5t-192.5 -70.5q-84 0 -142 32t-76 89q-74 -79 -187 -79q-82 0 -135.5 43t-53.5 120q0 91 81 130h-147v55h337v-55q-118 0 -163.5 -38.5t-45.5 -91.5q0 -50 36.5 -80.5t93.5 -30.5q59 0 108.5 32.5t72.5 73.5q9 39 36 64t65 30q-30 9 -57.5 40t-27.5 80
q0 67 48 106h-553v55h1059v-55z" />
    <glyph glyph-name="dvC_CH_VA" horiz-adv-x="1028" 
d="M855 473v106h-251q-68 -31 -68 -102q0 -45 31.5 -66.5t76.5 -21.5h28v-53h-38q-54 0 -86 -24.5t-32 -64.5q0 -55 54 -85.5t137 -30.5q92 0 155.5 50.5t63.5 128.5q0 53 -30 83.5t-91 30.5q-26 0 -42 -7v53q16 6 51 6q22 0 41 -3zM849 19v93q-66 -34 -142 -34h-8
q-66 0 -104.5 -31t-38.5 -86q0 -57 36 -88t94 -31q78 0 120.5 52.5t42.5 124.5zM1048 579h-137v-124q77 -41 77 -146q0 -89 -78 -157v-452h-61v178q-50 -88 -166 -88q-78 0 -133.5 45.5t-55.5 125.5q0 93 85 137q-76 26 -107 82q-74 -79 -187 -79q-82 0 -135.5 43t-53.5 120
q0 91 81 130h-147v55h337v-55q-118 0 -163.5 -38.5t-45.5 -91.5q0 -50 36.5 -80.5t93.5 -30.5q50 0 94.5 24.5t71.5 59.5v10q0 47 31.5 79t73.5 38q-31 9 -58 37t-27 77q0 63 48 101h-542v55h1068v-55z" />
    <glyph glyph-name="dvC_NA" horiz-adv-x="637" 
d="M657 634v-55h-120v-579h-62v194q-24 -42 -73 -67l-171 -104q-20 -12 -20 -31t14.5 -42t31.5 -37l-43 -30q-75 55 -75 109q0 39 44 64l83 46q-70 7 -115 49t-45 113q0 91 81 130h-147v55h337v-55q-118 0 -163.5 -38.5t-45.5 -91.5t34.5 -82t90.5 -29q86 0 134 52t48 123
v251h-495v55h677z" />
    <glyph glyph-name="dvC_MA" horiz-adv-x="929" 
d="M767 339v240h-223v-240h223zM949 634v-55h-120v-579h-62v285h-223v-140h-55l-16 36q-73 -80 -188 -80q-82 0 -135.5 43t-53.5 120q0 91 81 130h-147v55h337v-55q-118 0 -163.5 -38.5t-45.5 -91.5q0 -50 36.5 -80.5t93.5 -30.5q49 0 92.5 23.5t70.5 57.5q-11 33 -11 51
q0 19 12 33.5t30 18.5v242h-502v55h969z" />
    <glyph glyph-name="dvC_YA" horiz-adv-x="993" 
d="M832 327v252h-202q26 -39 26 -94q0 -117 -153 -164q13 -60 58.5 -99.5t107.5 -39.5q72 0 117.5 40t45.5 105zM1013 634v-55h-120v-579h-61v201q-54 -71 -166 -71q-108 0 -172 78q-29 -46 -84.5 -76.5t-124.5 -30.5q-82 0 -135.5 43t-53.5 120q0 91 81 130h-147v55h337
v-55q-118 0 -163.5 -38.5t-45.5 -91.5q0 -50 36.5 -80.5t93.5 -30.5q55 0 103.5 30t72.5 69q-25 45 -34 112q79 13 121.5 46t42.5 78q0 52 -31 91h-583v55h1033z" />
    <glyph glyph-name="dvCH_YA" horiz-adv-x="1163" 
d="M1002 274v305h-781q-69 -32 -69 -107q0 -45 32 -71.5t76 -26.5h28v-53h-38q-55 0 -86.5 -26.5t-31.5 -69.5q0 -53 46.5 -83.5t116.5 -30.5q91 0 149 52t58 144q0 53 -30 85t-91 32q-26 0 -42 -7v53q16 6 51 6q67 0 111 -30q75 37 172 37q90 0 131 -32.5t41 -82.5
q0 -46 -37.5 -83t-94.5 -54q10 -49 48.5 -79t93.5 -30q68 0 107.5 45t39.5 107zM1184 634v-55h-121v-579h-61v140q-51 -72 -150 -72q-82 0 -140.5 52t-71.5 153q143 24 143 98q0 59 -107 59q-66 0 -136 -26q24 -42 24 -98q0 -106 -76.5 -176.5t-192.5 -70.5
q-100 0 -162.5 45.5t-62.5 121.5q0 52 29.5 86.5t75.5 40.5q-30 9 -57.5 40t-27.5 80q0 67 48 106h-158v55h1204z" />
    <glyph glyph-name="dvJ_KA" horiz-adv-x="1201" 
d="M1221 579h-369v-151q43 49 119 49q80 0 130.5 -48t50.5 -128q0 -86 -56 -137t-137 -51q-15 0 -23 3v54q10 -2 21 -2q57 0 95 35t38 98q0 55 -34.5 89.5t-88.5 34.5q-46 0 -80.5 -32t-34.5 -79v-314h-62v152q-43 -49 -119 -49q-80 0 -130.5 48t-50.5 128q0 66 36 115h-256
q75 -45 75 -147q0 -80 -54 -131t-144 -51q-64 0 -117 23v57q58 -28 115 -28q61 0 99 34t38 94q0 74 -49 111.5t-134 37.5v54h495q43 19 89 19q15 0 23 -3v-54q-10 2 -21 2q-57 0 -95 -35t-38 -98q0 -55 34.5 -89.5t88.5 -34.5q46 0 80.5 32t34.5 79v313h-810v55h1241v-55z
" />
    <glyph glyph-name="dvJ_JA" horiz-adv-x="1048" 
d="M1068 634v-55h-120v-579h-61v394h-217q75 -45 75 -147q0 -80 -54 -131t-144 -51q-64 0 -117 23v57q58 -28 115 -28q61 0 99 34t38 94q0 74 -49 111.5t-134 37.5h-229q75 -45 75 -147q0 -80 -54 -131t-144 -51q-64 0 -117 23v57q58 -28 115 -28q61 0 99 34t38 94
q0 74 -49 111.5t-134 37.5v54h788v131h-907v55h1088z" />
    <glyph glyph-name="dvJx_JxA" horiz-adv-x="1048" 
d="M149 -40q20 0 34 -13.5t14 -33.5t-14 -33t-34 -13t-33 13t-13 33t13 33.5t33 13.5zM549 -40q20 0 34 -13.5t14 -33.5t-14 -33t-34 -13t-33 13t-13 33t13 33.5t33 13.5zM1068 634v-55h-120v-579h-61v394h-217q75 -45 75 -147q0 -80 -54 -131t-144 -51q-64 0 -117 23v57
q58 -28 115 -28q61 0 99 34t38 94q0 74 -49 111.5t-134 37.5h-229q75 -45 75 -147q0 -80 -54 -131t-144 -51q-64 0 -117 23v57q58 -28 115 -28q61 0 99 34t38 94q0 74 -49 111.5t-134 37.5v54h788v131h-907v55h1088z" />
    <glyph glyph-name="dvJ_J_NYA" horiz-adv-x="1163" 
d="M1203 634v-55h-140v-579h-62v432h-326q-46 0 -73 -16.5t-27 -49.5q0 -66 126 -66q175 0 175 -131q0 -66 -47.5 -107t-117.5 -41q-97 0 -151 59v-127h-60v222h55q19 -44 62.5 -73t93.5 -29q45 0 73 27t28 69q0 46 -35.5 62t-100.5 16q-80 0 -122.5 31t-42.5 86q0 18 4 30
h-245q75 -45 75 -147q0 -80 -54 -131t-144 -51q-64 0 -117 23v57q58 -28 115 -28q61 0 99 34t38 94q0 74 -49 111.5t-134 37.5v54h449q45 39 127 39h326v92h-1021v55h1223z" />
    </font>
</defs>
</svg>
